  0
SECTION
  2
HEADER
  9
$ACADVER
  1
AC1027
  9
$ACADMAINTVER
 70
   106
  9
$DWGCODEPAGE
  3
ANSI_1252
  9
$AUTHOR
  1
DLamberti
  9
$CUSTOMPROPERTYTAG
  1
Manager
  9
$CUSTOMPROPERTY
  1

  9
$CUSTOMPROPERTYTAG
  1
Firma
  9
$CUSTOMPROPERTY
  1

  9
$CUSTOMPROPERTYTAG
  1
Kategorie
  9
$CUSTOMPROPERTY
  1

  9
$CUSTOMPROPERTYTAG
  1
Bauteilnummer
  9
$CUSTOMPROPERTY
  1

  9
$CUSTOMPROPERTYTAG
  1
Bezeichnung
  9
$CUSTOMPROPERTY
  1

  9
$CUSTOMPROPERTYTAG
  1
Projekt
  9
$CUSTOMPROPERTY
  1

  9
$CUSTOMPROPERTYTAG
  1
Konstrukteur
  9
$CUSTOMPROPERTY
  1
DLamberti
  9
$CUSTOMPROPERTYTAG
  1
Ingenieur
  9
$CUSTOMPROPERTY
  1

  9
$CUSTOMPROPERTYTAG
  1
Bevollmächtigter
  9
$CUSTOMPROPERTY
  1

  9
$CUSTOMPROPERTYTAG
  1
Kostenstelle
  9
$CUSTOMPROPERTY
  1

  9
$CUSTOMPROPERTYTAG
  1
Kosten
  9
$CUSTOMPROPERTY
  1

  9
$CUSTOMPROPERTYTAG
  1
Zulieferer
  9
$CUSTOMPROPERTY
  1

  9
$CUSTOMPROPERTYTAG
  1
Benutzerstatus
  9
$CUSTOMPROPERTY
  1

  9
$CUSTOMPROPERTYTAG
  1
Konstruktionsstatus
  9
$CUSTOMPROPERTY
  1
InBearbeitung
  9
$CUSTOMPROPERTYTAG
  1
Kontrolliert von
  9
$CUSTOMPROPERTY
  1

  9
$CUSTOMPROPERTYTAG
  1
Konstruktion genehmigt von
  9
$CUSTOMPROPERTY
  1

  9
$CUSTOMPROPERTYTAG
  1
Fertigung genehmigt von
  9
$CUSTOMPROPERTY
  1

  9
$CUSTOMPROPERTYTAG
  1
Erstellungsdatum
  9
$CUSTOMPROPERTY
  1
11/23/2015
  9
$CUSTOMPROPERTYTAG
  1
Bestandsnummer
  9
$CUSTOMPROPERTY
  1

  9
$CUSTOMPROPERTYTAG
  1
ERSATZ_FUER
  9
$CUSTOMPROPERTY
  1

  9
$CUSTOMPROPERTYTAG
  1
ERSETZT_DURCH
  9
$CUSTOMPROPERTY
  1

  9
$REQUIREDVERSIONS
160
                 0
  9
$INSBASE
 10
0.0
 20
0.0
 30
0.0
  9
$EXTMIN
 10
0.0
 20
0.0
 30
0.0
  9
$EXTMAX
 10
462.0
 20
326.7
 30
0.0
  9
$LIMMIN
 10
0.0
 20
0.0
  9
$LIMMAX
 10
462.0
 20
326.7
  9
$ORTHOMODE
 70
     0
  9
$REGENMODE
 70
     1
  9
$FILLMODE
 70
     1
  9
$QTEXTMODE
 70
     0
  9
$MIRRTEXT
 70
     0
  9
$LTSCALE
 40
1.0
  9
$ATTMODE
 70
     1
  9
$TEXTSIZE
 40
0.2
  9
$TRACEWID
 40
0.05
  9
$TEXTSTYLE
  7
Standard
  9
$CLAYER
  8
0
  9
$CELTYPE
  6
ByLayer
  9
$CECOLOR
 62
   256
  9
$CELTSCALE
 40
1.0
  9
$DISPSILH
 70
     0
  9
$DIMSCALE
 40
1.0
  9
$DIMASZ
 40
1.799999999999999
  9
$DIMEXO
 40
0.0625
  9
$DIMDLI
 40
0.38
  9
$DIMRND
 40
0.0
  9
$DIMDLE
 40
0.0
  9
$DIMEXE
 40
0.18
  9
$DIMTP
 40
0.0
  9
$DIMTM
 40
0.0
  9
$DIMTXT
 40
0.3499999940395355
  9
$DIMCEN
 40
0.09
  9
$DIMTSZ
 40
0.0
  9
$DIMTOL
 70
     0
  9
$DIMLIM
 70
     0
  9
$DIMTIH
 70
     1
  9
$DIMTOH
 70
     1
  9
$DIMSE1
 70
     0
  9
$DIMSE2
 70
     0
  9
$DIMTAD
 70
     0
  9
$DIMZIN
 70
     0
  9
$DIMBLK
  1

  9
$DIMASO
 70
     1
  9
$DIMSHO
 70
     1
  9
$DIMPOST
  1

  9
$DIMAPOST
  1

  9
$DIMALT
 70
     0
  9
$DIMALTD
 70
     2
  9
$DIMALTF
 40
25.4
  9
$DIMLFAC
 40
1.0
  9
$DIMTOFL
 70
     0
  9
$DIMTVP
 40
0.0
  9
$DIMTIX
 70
     0
  9
$DIMSOXD
 70
     0
  9
$DIMSAH
 70
     0
  9
$DIMBLK1
  1

  9
$DIMBLK2
  1

  9
$DIMSTYLE
  2
Standard
  9
$DIMCLRD
 70
     0
  9
$DIMCLRE
 70
     0
  9
$DIMCLRT
 70
     0
  9
$DIMTFAC
 40
1.0
  9
$DIMGAP
 40
0.09
  9
$DIMJUST
 70
     0
  9
$DIMSD1
 70
     0
  9
$DIMSD2
 70
     0
  9
$DIMTOLJ
 70
     1
  9
$DIMTZIN
 70
     0
  9
$DIMALTZ
 70
     0
  9
$DIMALTTZ
 70
     0
  9
$DIMUPT
 70
     0
  9
$DIMDEC
 70
     4
  9
$DIMTDEC
 70
     4
  9
$DIMALTU
 70
     2
  9
$DIMALTTD
 70
     2
  9
$DIMTXSTY
  7
Standard
  9
$DIMAUNIT
 70
     0
  9
$DIMADEC
 70
     0
  9
$DIMALTRND
 40
0.0
  9
$DIMAZIN
 70
     0
  9
$DIMDSEP
 70
    46
  9
$DIMATFIT
 70
     3
  9
$DIMFRAC
 70
     0
  9
$DIMLDRBLK
  1

  9
$DIMLUNIT
 70
     2
  9
$DIMLWD
 70
    -2
  9
$DIMLWE
 70
    -2
  9
$DIMTMOVE
 70
     0
  9
$DIMFXL
 40
1.0
  9
$DIMFXLON
 70
     0
  9
$DIMJOGANG
 40
0.7853981633974483
  9
$DIMTFILL
 70
     0
  9
$DIMTFILLCLR
 70
     0
  9
$DIMARCSYM
 70
     0
  9
$DIMLTYPE
  6

  9
$DIMLTEX1
  6

  9
$DIMLTEX2
  6

  9
$DIMTXTDIRECTION
 70
     0
  9
$LUNITS
 70
     2
  9
$LUPREC
 70
     4
  9
$SKETCHINC
 40
0.1
  9
$FILLETRAD
 40
0.0
  9
$AUNITS
 70
     0
  9
$AUPREC
 70
     0
  9
$MENU
  1
.
  9
$ELEVATION
 40
0.0
  9
$PELEVATION
 40
0.0
  9
$THICKNESS
 40
0.0
  9
$LIMCHECK
 70
     0
  9
$CHAMFERA
 40
0.0
  9
$CHAMFERB
 40
0.0
  9
$CHAMFERC
 40
0.0
  9
$CHAMFERD
 40
0.0
  9
$SKPOLY
 70
     0
  9
$TDCREATE
 40
2457350.477104202
  9
$TDUCREATE
 40
2457350.435437535
  9
$TDUPDATE
 40
2457350.477104202
  9
$TDUUPDATE
 40
2457350.435437535
  9
$TDINDWG
 40
0.0000130440
  9
$TDUSRTIMER
 40
0.0000130440
  9
$USRTIMER
 70
     1
  9
$ANGBASE
 50
0.0
  9
$ANGDIR
 70
     0
  9
$PDMODE
 70
     0
  9
$PDSIZE
 40
0.0
  9
$PLINEWID
 40
0.0
  9
$SPLFRAME
 70
     0
  9
$SPLINETYPE
 70
     6
  9
$SPLINESEGS
 70
     8
  9
$HANDSEED
  5
8E0
  9
$SURFTAB1
 70
     6
  9
$SURFTAB2
 70
     6
  9
$SURFTYPE
 70
     6
  9
$SURFU
 70
     6
  9
$SURFV
 70
     6
  9
$UCSBASE
  2

  9
$UCSNAME
  2

  9
$UCSORG
 10
0.0
 20
0.0
 30
0.0
  9
$UCSXDIR
 10
1.0
 20
0.0
 30
0.0
  9
$UCSYDIR
 10
0.0
 20
1.0
 30
0.0
  9
$UCSORTHOREF
  2

  9
$UCSORTHOVIEW
 70
     0
  9
$UCSORGTOP
 10
0.0
 20
0.0
 30
0.0
  9
$UCSORGBOTTOM
 10
0.0
 20
0.0
 30
0.0
  9
$UCSORGLEFT
 10
0.0
 20
0.0
 30
0.0
  9
$UCSORGRIGHT
 10
0.0
 20
0.0
 30
0.0
  9
$UCSORGFRONT
 10
0.0
 20
0.0
 30
0.0
  9
$UCSORGBACK
 10
0.0
 20
0.0
 30
0.0
  9
$PUCSBASE
  2

  9
$PUCSNAME
  2

  9
$PUCSORG
 10
0.0
 20
0.0
 30
0.0
  9
$PUCSXDIR
 10
1.0
 20
0.0
 30
0.0
  9
$PUCSYDIR
 10
0.0
 20
1.0
 30
0.0
  9
$PUCSORTHOREF
  2

  9
$PUCSORTHOVIEW
 70
     0
  9
$PUCSORGTOP
 10
0.0
 20
0.0
 30
0.0
  9
$PUCSORGBOTTOM
 10
0.0
 20
0.0
 30
0.0
  9
$PUCSORGLEFT
 10
0.0
 20
0.0
 30
0.0
  9
$PUCSORGRIGHT
 10
0.0
 20
0.0
 30
0.0
  9
$PUCSORGFRONT
 10
0.0
 20
0.0
 30
0.0
  9
$PUCSORGBACK
 10
0.0
 20
0.0
 30
0.0
  9
$USERI1
 70
     0
  9
$USERI2
 70
     0
  9
$USERI3
 70
     0
  9
$USERI4
 70
     0
  9
$USERI5
 70
     0
  9
$USERR1
 40
0.0
  9
$USERR2
 40
0.0
  9
$USERR3
 40
0.0
  9
$USERR4
 40
0.0
  9
$USERR5
 40
0.0
  9
$WORLDVIEW
 70
     1
  9
$SHADEDGE
 70
     3
  9
$SHADEDIF
 70
    70
  9
$TILEMODE
 70
     1
  9
$MAXACTVP
 70
    64
  9
$PINSBASE
 10
0.0
 20
0.0
 30
0.0
  9
$PLIMCHECK
 70
     0
  9
$PEXTMIN
 10
0.0
 20
0.0
 30
0.0
  9
$PEXTMAX
 10
462.0
 20
326.7
 30
0.0
  9
$PLIMMIN
 10
0.0
 20
0.0
  9
$PLIMMAX
 10
462.0
 20
326.7
  9
$UNITMODE
 70
     0
  9
$VISRETAIN
 70
     1
  9
$PLINEGEN
 70
     0
  9
$PSLTSCALE
 70
     1
  9
$TREEDEPTH
 70
  3020
  9
$CMLSTYLE
  2
Standard
  9
$CMLJUST
 70
     0
  9
$CMLSCALE
 40
1.0
  9
$PROXYGRAPHICS
 70
     1
  9
$MEASUREMENT
 70
     1
  9
$CELWEIGHT
370
    -1
  9
$ENDCAPS
280
     0
  9
$JOINSTYLE
280
     0
  9
$LWDISPLAY
290
     0
  9
$INSUNITS
 70
     4
  9
$HYPERLINKBASE
  1

  9
$STYLESHEET
  1

  9
$XEDIT
290
     1
  9
$CEPSNTYPE
380
     0
  9
$PSTYLEMODE
290
     1
  9
$FINGERPRINTGUID
  2
{23A04203-174C-4F9D-8A60-40910CE1B221}
  9
$VERSIONGUID
  2
{C7C71F0D-FFB3-4844-BF5F-AB1BE128C09C}
  9
$EXTNAMES
290
     1
  9
$PSVPSCALE
 40
0.0
  9
$OLESTARTUP
290
     0
  9
$SORTENTS
280
   127
  9
$INDEXCTL
280
     0
  9
$HIDETEXT
280
     1
  9
$XCLIPFRAME
280
     2
  9
$HALOGAP
280
     0
  9
$OBSCOLOR
 70
   257
  9
$OBSLTYPE
280
     0
  9
$INTERSECTIONDISPLAY
280
     0
  9
$INTERSECTIONCOLOR
 70
   257
  9
$DIMASSOC
280
     1
  9
$PROJECTNAME
  1

  9
$CAMERADISPLAY
290
     0
  9
$LENSLENGTH
 40
50.0
  9
$CAMERAHEIGHT
 40
0.0
  9
$STEPSPERSEC
 40
2.0
  9
$STEPSIZE
 40
6.0
  9
$3DDWFPREC
 40
2.0
  9
$PSOLWIDTH
 40
0.25
  9
$PSOLHEIGHT
 40
4.0
  9
$LOFTANG1
 40
1.570796326794896
  9
$LOFTANG2
 40
1.570796326794896
  9
$LOFTMAG1
 40
0.0
  9
$LOFTMAG2
 40
0.0
  9
$LOFTPARAM
 70
     7
  9
$LOFTNORMALS
280
     1
  9
$LATITUDE
 40
37.795
  9
$LONGITUDE
 40
-122.394
  9
$NORTHDIRECTION
 40
0.0
  9
$TIMEZONE
 70
 -8000
  9
$LIGHTGLYPHDISPLAY
280
     1
  9
$TILEMODELIGHTSYNCH
280
     1
  9
$CMATERIAL
347
11
  9
$SOLIDHIST
280
     0
  9
$SHOWHIST
280
     1
  9
$DWFFRAME
280
     2
  9
$DGNFRAME
280
     0
  9
$REALWORLDSCALE
290
     1
  9
$INTERFERECOLOR
 62
     1
  9
$INTERFEREOBJVS
345
33
  9
$INTERFEREVPVS
346
30
  9
$CSHADOW
280
     0
  9
$SHADOWPLANELOCATION
 40
0.0
  0
ENDSEC
  0
SECTION
  2
CLASSES
  0
CLASS
  1
ACDBDICTIONARYWDFLT
  2
AcDbDictionaryWithDefault
  3
ObjectDBX Classes
 90
        0
 91
        1
280
     0
281
     0
  0
CLASS
  1
MATERIAL
  2
AcDbMaterial
  3
ObjectDBX Classes
 90
     1153
 91
        3
280
     0
281
     0
  0
CLASS
  1
VISUALSTYLE
  2
AcDbVisualStyle
  3
ObjectDBX Classes
 90
     4095
 91
       24
280
     0
281
     0
  0
CLASS
  1
SCALE
  2
AcDbScale
  3
ObjectDBX Classes
 90
     1153
 91
       17
280
     0
281
     0
  0
CLASS
  1
TABLESTYLE
  2
AcDbTableStyle
  3
ObjectDBX Classes
 90
     4095
 91
        1
280
     0
281
     0
  0
CLASS
  1
MLEADERSTYLE
  2
AcDbMLeaderStyle
  3
ACDB_MLEADERSTYLE_CLASS
 90
     4095
 91
        1
280
     0
281
     0
  0
CLASS
  1
ACDBSECTIONVIEWSTYLE
  2
AcDbSectionViewStyle
  3
ObjectDBX Classes
 90
     1025
 91
        1
280
     0
281
     0
  0
CLASS
  1
ACDBDETAILVIEWSTYLE
  2
AcDbDetailViewStyle
  3
ObjectDBX Classes
 90
     1025
 91
        1
280
     0
281
     0
  0
CLASS
  1
DICTIONARYVAR
  2
AcDbDictionaryVar
  3
ObjectDBX Classes
 90
        0
 91
        5
280
     0
281
     0
  0
CLASS
  1
CELLSTYLEMAP
  2
AcDbCellStyleMap
  3
ObjectDBX Classes
 90
     1152
 91
        1
280
     0
281
     0
  0
ENDSEC
  0
SECTION
  2
TABLES
  0
TABLE
  2
VPORT
  5
8
330
0
100
AcDbSymbolTable
 70
     1
  0
VPORT
  5
57
330
8
100
AcDbSymbolTableRecord
100
AcDbViewportTableRecord
  2
*Active
 70
     0
 10
0.0
 20
0.0
 11
1.0
 21
1.0
 12
231.0
 22
163.35
 13
0.0
 23
0.0
 14
1.0
 24
1.0
 15
0.0
 25
0.0
 16
0.0
 26
0.0
 36
1.0
 17
0.0
 27
0.0
 37
0.0
 40
326.7
 41
1.414141414141414
 42
50.0
 43
0.0
 44
0.0
 50
0.0
 51
0.0
 71
     0
 72
   100
 73
     1
 74
     1
 75
     0
 76
     0
 77
     0
 78
     0
281
     0
 65
     1
110
0.0
120
0.0
130
0.0
111
1.0
121
0.0
131
0.0
112
0.0
122
1.0
132
0.0
 79
     0
146
0.0
 60
     3
 61
     5
292
     1
282
     1
141
0.0
142
0.0
 63
   250
421
  3355443
  0
ENDTAB
  0
TABLE
  2
LTYPE
  5
5
330
0
100
AcDbSymbolTable
 70
    59
  0
LTYPE
  5
5B
330
5
100
AcDbSymbolTableRecord
100
AcDbLinetypeTableRecord
  2
ByBlock
 70
     0
  3

 72
    65
 73
     0
 40
0.0
  0
LTYPE
  5
5C
330
5
100
AcDbSymbolTableRecord
100
AcDbLinetypeTableRecord
  2
ByLayer
 70
     0
  3

 72
    65
 73
     0
 40
0.0
  0
LTYPE
  5
5D
330
5
100
AcDbSymbolTableRecord
100
AcDbLinetypeTableRecord
  2
Continuous
 70
     0
  3
Solid line
 72
    65
 73
     0
 40
0.0
  0
LTYPE
  5
78
330
5
100
AcDbSymbolTableRecord
100
AcDbLinetypeTableRecord
  2
Section_View_Lines
 70
     0
  3
Section View Lines
 72
    65
 73
     4
 40
0.8406
 49
0.6614
 74
     0
 49
-0.0827
 74
     0
 49
0.0138
 74
     0
 49
-0.0827
 74
     0
  0
LTYPE
  5
79
330
5
100
AcDbSymbolTableRecord
100
AcDbLinetypeTableRecord
  2
CHAIN
 70
     0
  3
Chain ____ _ ____ _ ____ _ ____ _ ____ _ ____
 72
    65
 73
     4
 40
0.3543
 49
0.2362
 74
     0
 49
-0.0295
 74
     0
 49
0.0591
 74
     0
 49
-0.0295
 74
     0
  0
LTYPE
  5
7A
330
5
100
AcDbSymbolTableRecord
100
AcDbLinetypeTableRecord
  2
DASH_DOT
 70
     0
  3
Dash dot _._._._._._._._._._._._._._._.
 72
    65
 73
     4
 40
0.37
 49
0.24
 74
     0
 49
-0.06
 74
     0
 49
0.01
 74
     0
 49
-0.06
 74
     0
  0
LTYPE
  5
7B
330
5
100
AcDbSymbolTableRecord
100
AcDbLinetypeTableRecord
  2
DASH_DOUBLE_DOT
 70
     0
  3
Dash Double Dot __ __ . __ __ . __ __ . __ _
 72
    65
 73
     6
 40
0.4398
 49
0.24
 74
     0
 49
-0.06
 74
     0
 49
0.0098
 74
     0
 49
-0.06
 74
     0
 49
0.01
 74
     0
 49
-0.06
 74
     0
  0
LTYPE
  5
7C
330
5
100
AcDbSymbolTableRecord
100
AcDbLinetypeTableRecord
  2
DASH_TRIPLE_DOT
 70
     0
  3
Dash Triple-Dot _ . . . _ . . . _ . . . _
 72
    65
 73
     8
 40
0.51
 49
0.24
 74
     0
 49
-0.06
 74
     0
 49
0.01
 74
     0
 49
-0.06
 74
     0
 49
0.01
 74
     0
 49
-0.06
 74
     0
 49
0.01
 74
     0
 49
-0.06
 74
     0
  0
LTYPE
  5
7D
330
5
100
AcDbSymbolTableRecord
100
AcDbLinetypeTableRecord
  2
DASHED
 70
     0
  3
Dashed __ __ __ __ __ __ __ __ __ __ __ __ __ _
 72
    65
 73
     2
 40
0.2067
 49
0.1654
 74
     0
 49
-0.0413
 74
     0
  0
LTYPE
  5
7E
330
5
100
AcDbSymbolTableRecord
100
AcDbLinetypeTableRecord
  2
DASHED_SPACE
 70
     0
  3
Dashed Space _._._._._._._._._._._._._._._.
 72
    65
 73
     2
 40
0.2067
 49
0.1654
 74
     0
 49
-0.0413
 74
     0
  0
LTYPE
  5
7F
330
5
100
AcDbSymbolTableRecord
100
AcDbLinetypeTableRecord
  2
DOTTED
 70
     0
  3
Dotted . . . . . . . . . . . . . . . . . . . . 
 72
    65
 73
     2
 40
0.0482
 49
0.0069
 74
     0
 49
-0.0413
 74
     0
  0
LTYPE
  5
80
330
5
100
AcDbSymbolTableRecord
100
AcDbLinetypeTableRecord
  2
DOUBLE_DASH_CHAIN
 70
     0
  3
Double Dash Chain ___ _ _ ___ _ _ ___ _ _ ___ _
 72
    65
 73
     6
 40
1.240299999999999
 49
0.6614
 74
     0
 49
-0.0827
 74
     0
 49
0.1654
 74
     0
 49
-0.0827
 74
     0
 49
0.1654
 74
     0
 49
-0.0827
 74
     0
  0
LTYPE
  5
81
330
5
100
AcDbSymbolTableRecord
100
AcDbLinetypeTableRecord
  2
DOUBLE_DASH_DOT
 70
     0
  3
Double Dash Dot __ __ . __ __ . __ __ . __ _
 72
    65
 73
     6
 40
0.67
 49
0.24
 74
     0
 49
-0.06
 74
     0
 49
0.24
 74
     0
 49
-0.06
 74
     0
 49
0.01
 74
     0
 49
-0.06
 74
     0
  0
LTYPE
  5
82
330
5
100
AcDbSymbolTableRecord
100
AcDbLinetypeTableRecord
  2
DOUBLE_DASH_DOUBLE_DOT
 70
     0
  3
Double-dash double-dot _ _ . . _ _ . . _
 72
    65
 73
     8
 40
0.7400000000000001
 49
0.24
 74
     0
 49
-0.06
 74
     0
 49
0.24
 74
     0
 49
-0.06
 74
     0
 49
0.01
 74
     0
 49
-0.06
 74
     0
 49
0.01
 74
     0
 49
-0.06
 74
     0
  0
LTYPE
  5
83
330
5
100
AcDbSymbolTableRecord
100
AcDbLinetypeTableRecord
  2
DOUBLE_DASH_TRIPLE_DOT
 70
     0
  3
Double Dash Triple Dot __ __ . . . __ __ . . .
 72
    65
 73
    10
 40
0.8100000000000001
 49
0.24
 74
     0
 49
-0.06
 74
     0
 49
0.24
 74
     0
 49
-0.06
 74
     0
 49
0.01
 74
     0
 49
-0.06
 74
     0
 49
0.01
 74
     0
 49
-0.06
 74
     0
 49
0.01
 74
     0
 49
-0.06
 74
     0
  0
LTYPE
  5
84
330
5
100
AcDbSymbolTableRecord
100
AcDbLinetypeTableRecord
  2
LONG_DASH_DOTTED
 70
     0
  3
Long-Dash Dot ____ . ____ . ____ . ____ . _
 72
    65
 73
     4
 40
0.3001
 49
0.2362
 74
     0
 49
-0.0295
 74
     0
 49
0.0049
 74
     0
 49
-0.0295
 74
     0
  0
LTYPE
  5
85
330
5
100
AcDbSymbolTableRecord
100
AcDbLinetypeTableRecord
  2
LONG_DASH_DOUBLE_DOT
 70
     0
  3
Long Dash Double Dot ____ . . ____ . . ____ . .
 72
    65
 73
     6
 40
0.3345
 49
0.2362
 74
     0
 49
-0.0295
 74
     0
 49
0.0049
 74
     0
 49
-0.0295
 74
     0
 49
0.0049
 74
     0
 49
-0.0295
 74
     0
  0
LTYPE
  5
86
330
5
100
AcDbSymbolTableRecord
100
AcDbLinetypeTableRecord
  2
LONG_DASH_TRIPLE_DOT
 70
     0
  3
Long Dash Triple Dot ____ ... ____ ... ____
 72
    65
 73
     8
 40
0.75
 49
0.48
 74
     0
 49
-0.06
 74
     0
 49
0.01
 74
     0
 49
-0.06
 74
     0
 49
0.01
 74
     0
 49
-0.06
 74
     0
 49
0.01
 74
     0
 49
-0.06
 74
     0
  0
LTYPE
  5
87
330
5
100
AcDbSymbolTableRecord
100
AcDbLinetypeTableRecord
  2
BORDER
 70
     0
  3
Border __ __ . __ __ . __ __ . __ __ . __ __ .
 72
    65
 73
     6
 40
44.45
 49
12.7
 74
     0
 49
-6.349999999999999
 74
     0
 49
12.7
 74
     0
 49
-6.349999999999999
 74
     0
 49
0.0
 74
     0
 49
-6.349999999999999
 74
     0
  0
LTYPE
  5
88
330
5
100
AcDbSymbolTableRecord
100
AcDbLinetypeTableRecord
  2
BORDER2
 70
     0
  3
Border (.5x) __.__.__.__.__.__.__.__.__.__.__.
 72
    65
 73
     6
 40
22.225
 49
6.349999999999999
 74
     0
 49
-3.174999999999999
 74
     0
 49
6.349999999999999
 74
     0
 49
-3.174999999999999
 74
     0
 49
0.0
 74
     0
 49
-3.174999999999999
 74
     0
  0
LTYPE
  5
89
330
5
100
AcDbSymbolTableRecord
100
AcDbLinetypeTableRecord
  2
BORDERX2
 70
     0
  3
Border (2x) ____  ____  .  ____  ____  .  ___
 72
    65
 73
     6
 40
88.9
 49
25.4
 74
     0
 49
-12.7
 74
     0
 49
25.4
 74
     0
 49
-12.7
 74
     0
 49
0.0
 74
     0
 49
-12.7
 74
     0
  0
LTYPE
  5
8A
330
5
100
AcDbSymbolTableRecord
100
AcDbLinetypeTableRecord
  2
CENTER
 70
     0
  3
Center ____ _ ____ _ ____ _ ____ _ ____ _ ____
 72
    65
 73
     4
 40
50.8
 49
31.75
 74
     0
 49
-6.349999999999999
 74
     0
 49
6.349999999999999
 74
     0
 49
-6.349999999999999
 74
     0
  0
LTYPE
  5
8B
330
5
100
AcDbSymbolTableRecord
100
AcDbLinetypeTableRecord
  2
CENTER2
 70
     0
  3
Center (.5x) ___ _ ___ _ ___ _ ___ _ ___ _ ___
 72
    65
 73
     4
 40
28.575
 49
19.05
 74
     0
 49
-3.174999999999999
 74
     0
 49
3.174999999999999
 74
     0
 49
-3.174999999999999
 74
     0
  0
LTYPE
  5
8C
330
5
100
AcDbSymbolTableRecord
100
AcDbLinetypeTableRecord
  2
CENTERX2
 70
     0
  3
Center (2x) ________  __  ________  __  _____
 72
    65
 73
     4
 40
101.6
 49
63.5
 74
     0
 49
-12.7
 74
     0
 49
12.7
 74
     0
 49
-12.7
 74
     0
  0
LTYPE
  5
8D
330
5
100
AcDbSymbolTableRecord
100
AcDbLinetypeTableRecord
  2
DASHDOT2
 70
     0
  3
Dash dot (.5x) _._._._._._._._._._._._._._._.
 72
    65
 73
     4
 40
12.7
 49
6.349999999999999
 74
     0
 49
-3.174999999999999
 74
     0
 49
0.0
 74
     0
 49
-3.174999999999999
 74
     0
  0
LTYPE
  5
8E
330
5
100
AcDbSymbolTableRecord
100
AcDbLinetypeTableRecord
  2
DASHDOTX2
 70
     0
  3
Dash dot (2x) ____  .  ____  .  ____  .  ___
 72
    65
 73
     4
 40
50.8
 49
25.4
 74
     0
 49
-12.7
 74
     0
 49
0.0
 74
     0
 49
-12.7
 74
     0
  0
LTYPE
  5
8F
330
5
100
AcDbSymbolTableRecord
100
AcDbLinetypeTableRecord
  2
DASHED2
 70
     0
  3
Dashed (.5x) _ _ _ _ _ _ _ _ _ _ _ _ _ _ _ _ _
 72
    65
 73
     2
 40
9.524999999999998
 49
6.349999999999999
 74
     0
 49
-3.174999999999999
 74
     0
  0
LTYPE
  5
90
330
5
100
AcDbSymbolTableRecord
100
AcDbLinetypeTableRecord
  2
DASHEDX2
 70
     0
  3
Dashed (2x) ____  ____  ____  ____  ____  ___
 72
    65
 73
     2
 40
38.1
 49
25.4
 74
     0
 49
-12.7
 74
     0
  0
LTYPE
  5
91
330
5
100
AcDbSymbolTableRecord
100
AcDbLinetypeTableRecord
  2
DIVIDE
 70
     0
  3
Divide ____ . . ____ . . ____ . . ____ . . ____
 72
    65
 73
     6
 40
31.75
 49
12.7
 74
     0
 49
-6.349999999999999
 74
     0
 49
0.0
 74
     0
 49
-6.349999999999999
 74
     0
 49
0.0
 74
     0
 49
-6.349999999999999
 74
     0
  0
LTYPE
  5
92
330
5
100
AcDbSymbolTableRecord
100
AcDbLinetypeTableRecord
  2
DIVIDE2
 70
     0
  3
Divide (.5x) __..__..__..__..__..__..__..__.._
 72
    65
 73
     6
 40
15.875
 49
6.349999999999999
 74
     0
 49
-3.174999999999999
 74
     0
 49
0.0
 74
     0
 49
-3.174999999999999
 74
     0
 49
0.0
 74
     0
 49
-3.174999999999999
 74
     0
  0
LTYPE
  5
93
330
5
100
AcDbSymbolTableRecord
100
AcDbLinetypeTableRecord
  2
DIVIDEX2
 70
     0
  3
Divide (2x) ________  .  .  ________  .  .  _
 72
    65
 73
     6
 40
63.49999999999999
 49
25.4
 74
     0
 49
-12.7
 74
     0
 49
0.0
 74
     0
 49
-12.7
 74
     0
 49
0.0
 74
     0
 49
-12.7
 74
     0
  0
LTYPE
  5
94
330
5
100
AcDbSymbolTableRecord
100
AcDbLinetypeTableRecord
  2
DOT
 70
     0
  3
Dot . . . . . . . . . . . . . . . . . . . . . .
 72
    65
 73
     2
 40
6.349999999999999
 49
0.0
 74
     0
 49
-6.349999999999999
 74
     0
  0
LTYPE
  5
95
330
5
100
AcDbSymbolTableRecord
100
AcDbLinetypeTableRecord
  2
DOT2
 70
     0
  3
Dot (.5x) .....................................
 72
    65
 73
     2
 40
3.174999999999999
 49
0.0
 74
     0
 49
-3.174999999999999
 74
     0
  0
LTYPE
  5
96
330
5
100
AcDbSymbolTableRecord
100
AcDbLinetypeTableRecord
  2
DOTX2
 70
     0
  3
Dot (2x) .  .  .  .  .  .  .  .  .  .  .  .  . 
 72
    65
 73
     2
 40
12.7
 49
0.0
 74
     0
 49
-12.7
 74
     0
  0
LTYPE
  5
97
330
5
100
AcDbSymbolTableRecord
100
AcDbLinetypeTableRecord
  2
HIDDEN
 70
     0
  3
Hidden __ __ __ __ __ __ __ __ __ __ __ __ __ _
 72
    65
 73
     2
 40
9.524999999999998
 49
6.349999999999999
 74
     0
 49
-3.174999999999999
 74
     0
  0
LTYPE
  5
98
330
5
100
AcDbSymbolTableRecord
100
AcDbLinetypeTableRecord
  2
HIDDEN2
 70
     0
  3
Hidden (.5x) _ _ _ _ _ _ _ _ _ _ _ _ _ _ _ _ _
 72
    65
 73
     2
 40
4.762499999999999
 49
3.174999999999999
 74
     0
 49
-1.587499999999999
 74
     0
  0
LTYPE
  5
99
330
5
100
AcDbSymbolTableRecord
100
AcDbLinetypeTableRecord
  2
HIDDENX2
 70
     0
  3
Hidden (2x) ____ ____ ____ ____ ____ ____ ____
 72
    65
 73
     2
 40
19.05
 49
12.7
 74
     0
 49
-6.349999999999999
 74
     0
  0
LTYPE
  5
9A
330
5
100
AcDbSymbolTableRecord
100
AcDbLinetypeTableRecord
  2
PHANTOM
 70
     0
  3
Phantom ______  __  __  ______  __  __  ______
 72
    65
 73
     6
 40
63.5
 49
31.75
 74
     0
 49
-6.349999999999999
 74
     0
 49
6.349999999999999
 74
     0
 49
-6.349999999999999
 74
     0
 49
6.349999999999999
 74
     0
 49
-6.349999999999999
 74
     0
  0
LTYPE
  5
9B
330
5
100
AcDbSymbolTableRecord
100
AcDbLinetypeTableRecord
  2
PHANTOM2
 70
     0
  3
Phantom (.5x) ___ _ _ ___ _ _ ___ _ _ ___ _ _
 72
    65
 73
     6
 40
31.75
 49
15.875
 74
     0
 49
-3.174999999999999
 74
     0
 49
3.174999999999999
 74
     0
 49
-3.174999999999999
 74
     0
 49
3.174999999999999
 74
     0
 49
-3.174999999999999
 74
     0
  0
LTYPE
  5
9C
330
5
100
AcDbSymbolTableRecord
100
AcDbLinetypeTableRecord
  2
PHANTOMX2
 70
     0
  3
Phantom (2x) ____________    ____    ____   _
 72
    65
 73
     6
 40
127.0
 49
63.5
 74
     0
 49
-12.7
 74
     0
 49
12.7
 74
     0
 49
-12.7
 74
     0
 49
12.7
 74
     0
 49
-12.7
 74
     0
  0
LTYPE
  5
9D
330
5
100
AcDbSymbolTableRecord
100
AcDbLinetypeTableRecord
  2
ACAD_ISO02W100
 70
     0
  3
ISO dash __ __ __ __ __ __ __ __ __ __ __ __ __
 72
    65
 73
     2
 40
15.0
 49
12.0
 74
     0
 49
-3.0
 74
     0
  0
LTYPE
  5
9E
330
5
100
AcDbSymbolTableRecord
100
AcDbLinetypeTableRecord
  2
ACAD_ISO03W100
 70
     0
  3
ISO dash space __    __    __    __    __    __
 72
    65
 73
     2
 40
30.0
 49
12.0
 74
     0
 49
-18.0
 74
     0
  0
LTYPE
  5
9F
330
5
100
AcDbSymbolTableRecord
100
AcDbLinetypeTableRecord
  2
ACAD_ISO04W100
 70
     0
  3
ISO long-dash dot ____ . ____ . ____ . ____ . _
 72
    65
 73
     4
 40
30.0
 49
24.0
 74
     0
 49
-3.0
 74
     0
 49
0.0
 74
     0
 49
-3.0
 74
     0
  0
LTYPE
  5
A0
330
5
100
AcDbSymbolTableRecord
100
AcDbLinetypeTableRecord
  2
ACAD_ISO05W100
 70
     0
  3
ISO long-dash double-dot ____ .. ____ .. ____ .
 72
    65
 73
     6
 40
33.0
 49
24.0
 74
     0
 49
-3.0
 74
     0
 49
0.0
 74
     0
 49
-3.0
 74
     0
 49
0.0
 74
     0
 49
-3.0
 74
     0
  0
LTYPE
  5
A1
330
5
100
AcDbSymbolTableRecord
100
AcDbLinetypeTableRecord
  2
ACAD_ISO06W100
 70
     0
  3
ISO long-dash triple-dot ____ ... ____ ... ____
 72
    65
 73
     8
 40
36.0
 49
24.0
 74
     0
 49
-3.0
 74
     0
 49
0.0
 74
     0
 49
-3.0
 74
     0
 49
0.0
 74
     0
 49
-3.0
 74
     0
 49
0.0
 74
     0
 49
-3.0
 74
     0
  0
LTYPE
  5
A2
330
5
100
AcDbSymbolTableRecord
100
AcDbLinetypeTableRecord
  2
ACAD_ISO07W100
 70
     0
  3
ISO dot . . . . . . . . . . . . . . . . . . . .
 72
    65
 73
     2
 40
3.0
 49
0.0
 74
     0
 49
-3.0
 74
     0
  0
LTYPE
  5
A3
330
5
100
AcDbSymbolTableRecord
100
AcDbLinetypeTableRecord
  2
ACAD_ISO08W100
 70
     0
  3
ISO long-dash short-dash ____ __ ____ __ ____ _
 72
    65
 73
     4
 40
36.0
 49
24.0
 74
     0
 49
-3.0
 74
     0
 49
6.0
 74
     0
 49
-3.0
 74
     0
  0
LTYPE
  5
A4
330
5
100
AcDbSymbolTableRecord
100
AcDbLinetypeTableRecord
  2
ACAD_ISO09W100
 70
     0
  3
ISO long-dash double-short-dash ____ __ __ ____
 72
    65
 73
     6
 40
45.0
 49
24.0
 74
     0
 49
-3.0
 74
     0
 49
6.0
 74
     0
 49
-3.0
 74
     0
 49
6.0
 74
     0
 49
-3.0
 74
     0
  0
LTYPE
  5
A5
330
5
100
AcDbSymbolTableRecord
100
AcDbLinetypeTableRecord
  2
ACAD_ISO10W100
 70
     0
  3
ISO dash dot __ . __ . __ . __ . __ . __ . __ .
 72
    65
 73
     4
 40
18.0
 49
12.0
 74
     0
 49
-3.0
 74
     0
 49
0.0
 74
     0
 49
-3.0
 74
     0
  0
LTYPE
  5
A6
330
5
100
AcDbSymbolTableRecord
100
AcDbLinetypeTableRecord
  2
ACAD_ISO11W100
 70
     0
  3
ISO double-dash dot __ __ . __ __ . __ __ . __ 
 72
    65
 73
     6
 40
33.0
 49
12.0
 74
     0
 49
-3.0
 74
     0
 49
12.0
 74
     0
 49
-3.0
 74
     0
 49
0.0
 74
     0
 49
-3.0
 74
     0
  0
LTYPE
  5
A7
330
5
100
AcDbSymbolTableRecord
100
AcDbLinetypeTableRecord
  2
ACAD_ISO12W100
 70
     0
  3
ISO dash double-dot __ . . __ . . __ . . __ . .
 72
    65
 73
     6
 40
21.0
 49
12.0
 74
     0
 49
-3.0
 74
     0
 49
0.0
 74
     0
 49
-3.0
 74
     0
 49
0.0
 74
     0
 49
-3.0
 74
     0
  0
LTYPE
  5
A8
330
5
100
AcDbSymbolTableRecord
100
AcDbLinetypeTableRecord
  2
ACAD_ISO13W100
 70
     0
  3
ISO double-dash double-dot __ __ . . __ __ . . 
 72
    65
 73
     8
 40
36.0
 49
12.0
 74
     0
 49
-3.0
 74
     0
 49
12.0
 74
     0
 49
-3.0
 74
     0
 49
0.0
 74
     0
 49
-3.0
 74
     0
 49
0.0
 74
     0
 49
-3.0
 74
     0
  0
LTYPE
  5
A9
330
5
100
AcDbSymbolTableRecord
100
AcDbLinetypeTableRecord
  2
ACAD_ISO14W100
 70
     0
  3
ISO dash triple-dot __ . . . __ . . . __ . . . 
 72
    65
 73
     8
 40
24.0
 49
12.0
 74
     0
 49
-3.0
 74
     0
 49
0.0
 74
     0
 49
-3.0
 74
     0
 49
0.0
 74
     0
 49
-3.0
 74
     0
 49
0.0
 74
     0
 49
-3.0
 74
     0
  0
LTYPE
  5
AA
330
5
100
AcDbSymbolTableRecord
100
AcDbLinetypeTableRecord
  2
ACAD_ISO15W100
 70
     0
  3
ISO double-dash triple-dot __ __ . . . __ __ . 
 72
    65
 73
    10
 40
39.0
 49
12.0
 74
     0
 49
-3.0
 74
     0
 49
12.0
 74
     0
 49
-3.0
 74
     0
 49
0.0
 74
     0
 49
-3.0
 74
     0
 49
0.0
 74
     0
 49
-3.0
 74
     0
 49
0.0
 74
     0
 49
-3.0
 74
     0
  0
LTYPE
  5
AD
330
5
100
AcDbSymbolTableRecord
100
AcDbLinetypeTableRecord
  2
FENCELINE1
 70
     0
  3
Fenceline circle ----0-----0----0-----0----0---
 72
    65
 73
     4
 40
36.83
 49
6.349999999999999
 74
     0
 49
-2.54
 74
     4
 75
   133
340
AC
 46
2.54
 50
0.0
 44
-2.54
 45
0.0
 49
-2.54
 74
     0
 49
25.4
 74
     0
  0
LTYPE
  5
AE
330
5
100
AcDbSymbolTableRecord
100
AcDbLinetypeTableRecord
  2
FENCELINE2
 70
     0
  3
Fenceline square ----[]-----[]----[]-----[]----
 72
    65
 73
     4
 40
36.83
 49
6.349999999999999
 74
     0
 49
-2.54
 74
     4
 75
   132
340
AC
 46
2.54
 50
0.0
 44
-2.54
 45
0.0
 49
-2.54
 74
     0
 49
25.4
 74
     0
  0
LTYPE
  5
AF
330
5
100
AcDbSymbolTableRecord
100
AcDbLinetypeTableRecord
  2
TRACKS
 70
     0
  3
Tracks -|-|-|-|-|-|-|-|-|-|-|-|-|-|-|-|-|-|-|-|
 72
    65
 73
     2
 40
7.62
 49
3.81
 74
     4
 75
   130
340
AC
 46
6.349999999999999
 50
0.0
 44
0.0
 45
0.0
 49
3.81
 74
     0
  0
LTYPE
  5
B0
330
5
100
AcDbSymbolTableRecord
100
AcDbLinetypeTableRecord
  2
BATTING
 70
     0
  3
Batting SSSSSSSSSSSSSSSSSSSSSSSSSSSSSSSSSSSSSSS
 72
    65
 73
     4
 40
10.16254
 49
0.00254
 74
     0
 49
-2.54
 74
     4
 75
   134
340
AC
 46
2.54
 50
0.0
 44
-2.54
 45
0.0
 49
-5.08
 74
     4
 75
   134
340
AC
 46
2.54
 50
180.0
 44
2.54
 45
0.0
 49
-2.54
 74
     0
  0
LTYPE
  5
B1
330
5
100
AcDbSymbolTableRecord
100
AcDbLinetypeTableRecord
  2
HOT_WATER_SUPPLY
 70
     0
  3
Hot water supply ---- HW ---- HW ---- HW ----
 72
    65
 73
     3
 40
22.86
 49
12.7
 74
     0
 49
-5.08
 74
     2
 75
     0
340
55
 46
2.54
 50
0.0
 44
-2.54
 45
-1.27
  9
HW
 49
-5.08
 74
     0
  0
LTYPE
  5
B2
330
5
100
AcDbSymbolTableRecord
100
AcDbLinetypeTableRecord
  2
GAS_LINE
 70
     0
  3
Gas line ----GAS----GAS----GAS----GAS----GAS---
 72
    65
 73
     3
 40
24.13
 49
12.7
 74
     0
 49
-5.08
 74
     2
 75
     0
340
55
 46
2.54
 50
0.0
 44
-2.54
 45
-1.27
  9
GAS
 49
-6.349999999999999
 74
     0
  0
LTYPE
  5
B3
330
5
100
AcDbSymbolTableRecord
100
AcDbLinetypeTableRecord
  2
ZIGZAG
 70
     0
  3
Zig zag /\/\/\/\/\/\/\/\/\/\/\/\/\/\/\/\/\/\/\/
 72
    65
 73
     4
 40
20.32254
 49
0.00254
 74
     0
 49
-5.08
 74
     4
 75
   131
340
AC
 46
5.08
 50
0.0
 44
-5.08
 45
0.0
 49
-10.16
 74
     4
 75
   131
340
AC
 46
5.08
 50
180.0
 44
5.08
 45
0.0
 49
-5.08
 74
     0
  0
ENDTAB
  0
TABLE
  2
LAYER
  5
2
330
0
100
AcDbSymbolTable
 70
    58
  0
LAYER
  5
54
330
2
100
AcDbSymbolTableRecord
100
AcDbLayerTableRecord
  2
0
 70
     0
 62
     7
  6
Continuous
370
    25
390
F
347
21
348
0
  0
LAYER
  5
BC
330
2
100
AcDbSymbolTableRecord
100
AcDbLayerTableRecord
  2
Bemaßung (ISO)
 70
     0
 62
     7
  6
Continuous
370
    25
390
F
347
21
348
0
  0
LAYER
  5
D8
330
2
100
AcDbSymbolTableRecord
100
AcDbLayerTableRecord
  2
Sichtbar (ISO)
 70
     0
 62
     7
  6
Continuous
370
    50
390
F
347
21
348
0
  0
LAYER
  5
DC
330
2
100
AcDbSymbolTableRecord
100
AcDbLayerTableRecord
  2
Skizziergeometrie (ISO)
 70
     0
 62
     7
  6
Continuous
370
    25
390
F
347
21
348
0
  0
LAYER
  5
E1
330
2
100
AcDbSymbolTableRecord
100
AcDbLayerTableRecord
  2
Symbol (ISO)
 70
     0
 62
     7
  6
Continuous
370
    25
390
F
347
21
348
0
  0
LAYER
  5
300
330
2
100
AcDbSymbolTableRecord
100
AcDbLayerTableRecord
  2
Defpoints
 70
     0
 62
     7
  6
Continuous
290
     0
370
    -3
390
F
347
21
348
0
  0
ENDTAB
  0
TABLE
  2
STYLE
  5
3
330
0
100
AcDbSymbolTable
 70
    51
  0
STYLE
  5
55
330
3
100
AcDbSymbolTableRecord
100
AcDbTextStyleTableRecord
  2
Standard
 70
     0
 40
0.0
 41
1.0
 50
0.0
 71
     0
 42
0.2
  3
isocpeur.ttf
  4

1001
ACAD
1000
ISOCPEUR
1071
      256
  0
STYLE
  5
5A
330
3
100
AcDbSymbolTableRecord
100
AcDbTextStyleTableRecord
  2
Annotative
 70
     0
 40
0.0
 41
1.0
 50
0.0
 71
     0
 42
0.2
  3
txt
  4

1001
AcadAnnotative
1000
AnnotativeData
1002
{
1070
     1
1070
     1
1002
}
  0
STYLE
  5
AC
330
3
100
AcDbSymbolTableRecord
100
AcDbTextStyleTableRecord
  2

 70
     1
 40
0.0
 41
1.0
 50
0.0
 71
     0
 42
0.2
  3
ltypeshp.shx
  4

  0
STYLE
  5
EC
330
3
100
AcDbSymbolTableRecord
100
AcDbTextStyleTableRecord
  2
Aktuell-DIN
 70
     0
 40
0.0
 41
1.0
 50
0.0
 71
     0
 42
0.2
  3
arial.ttf
  4

1001
ACAD
1000
Arial
1071
      256
  0
STYLE
  5
ED
330
3
100
AcDbSymbolTableRecord
100
AcDbTextStyleTableRecord
  2
Aktuell-DINGroßer Text
 70
     0
 40
0.0
 41
1.0
 50
0.0
 71
     0
 42
0.2
  3
arial.ttf
  4

1001
ACAD
1000
Arial
1071
      256
  0
STYLE
  5
EE
330
3
100
AcDbSymbolTableRecord
100
AcDbTextStyleTableRecord
  2
Aktuell-DINGroßer TextSTANDARD-DINGroßer Text$7
 70
     0
 40
0.0
 41
1.0
 50
0.0
 71
     0
 42
0.2
  3
arial.ttf
  4

1001
ACAD
1000
Arial
1071
      256
  0
STYLE
  5
EF
330
3
100
AcDbSymbolTableRecord
100
AcDbTextStyleTableRecord
  2
Aktuell-DINNach Layer
 70
     0
 40
0.0
 41
1.0
 50
0.0
 71
     0
 42
0.2
  3
arial.ttf
  4

1001
ACAD
1000
Arial
1071
      256
  0
STYLE
  5
F0
330
3
100
AcDbSymbolTableRecord
100
AcDbTextStyleTableRecord
  2
Bezeichnungstext (DIN)
 70
     0
 40
0.0
 41
1.0
 50
0.0
 71
     0
 42
0.2
  3
isocpeur.ttf
  4

1001
ACAD
1000
ISOCPEUR
1071
      256
  0
STYLE
  5
F1
330
3
100
AcDbSymbolTableRecord
100
AcDbTextStyleTableRecord
  2
Notiztext (DIN)
 70
     0
 40
0.0
 41
1.0
 50
0.0
 71
     0
 42
0.2
  3
isocpeur.ttf
  4

1001
ACAD
1000
ISOCPEUR
1071
      256
  0
STYLE
  5
F2
330
3
100
AcDbSymbolTableRecord
100
AcDbTextStyleTableRecord
  2
Notiztext (DIN)Durchmesser (DIN)$7
 70
     0
 40
0.0
 41
1.0
 50
0.0
 71
     0
 42
0.2
  3
isocpeur.ttf
  4

1001
ACAD
1000
ISOCPEUR
1071
      256
  0
STYLE
  5
F3
330
3
100
AcDbSymbolTableRecord
100
AcDbTextStyleTableRecord
  2
Notiztext (DIN)Standard - Methode 2a (DIN)$7
 70
     0
 40
0.0
 41
1.0
 50
0.0
 71
     0
 42
0.2
  3
isocpeur.ttf
  4

1001
ACAD
1000
ISOCPEUR
1071
      256
  0
STYLE
  5
F4
330
3
100
AcDbSymbolTableRecord
100
AcDbTextStyleTableRecord
  2
Notiztext (DIN)Standard - Methode 2b (DIN)$7
 70
     0
 40
0.0
 41
1.0
 50
0.0
 71
     0
 42
0.2
  3
isocpeur.ttf
  4

1001
ACAD
1000
ISOCPEUR
1071
      256
  0
STYLE
  5
F5
330
3
100
AcDbSymbolTableRecord
100
AcDbTextStyleTableRecord
  2
Notiztext (DIN)Standard (DIN)$7
 70
     0
 40
0.0
 41
1.0
 50
0.0
 71
     0
 42
0.2
  3
isocpeur.ttf
  4

1001
ACAD
1000
ISOCPEUR
1071
      256
  0
STYLE
  5
F6
330
3
100
AcDbSymbolTableRecord
100
AcDbTextStyleTableRecord
  2
STANDARD-BSI~0
 70
     0
 40
0.0
 41
1.0
 50
0.0
 71
     0
 42
0.2
  3
arial.ttf
  4

1001
ACAD
1000
Arial
1071
      256
  0
STYLE
  5
F7
330
3
100
AcDbSymbolTableRecord
100
AcDbTextStyleTableRecord
  2
STANDARD-BSI~0STANDARD-DIN$7
 70
     0
 40
0.0
 41
1.0
 50
0.0
 71
     0
 42
0.2
  3
arial.ttf
  4

1001
ACAD
1000
Arial
1071
      256
  0
STYLE
  5
F8
330
3
100
AcDbSymbolTableRecord
100
AcDbTextStyleTableRecord
  2
StandardAlternativ (ISO)
 70
     0
 40
0.0
 41
1.0
 50
0.0
 71
     0
 42
0.2
  3
isocpeur.ttf
  4

1001
ACAD
1000
ISOCPEUR
1071
      256
  0
STYLE
  5
F9
330
3
100
AcDbSymbolTableRecord
100
AcDbTextStyleTableRecord
  2
StandardAnnotative
 70
     0
 40
0.0
 41
1.0
 50
0.0
 71
     0
 42
0.2
  3
isocpeur.ttf
  4

1001
ACAD
1000
ISOCPEUR
1071
      256
  0
STYLE
  5
FA
330
3
100
AcDbSymbolTableRecord
100
AcDbTextStyleTableRecord
  2
StandardBezug (ISO)
 70
     0
 40
0.0
 41
1.0
 50
0.0
 71
     0
 42
0.2
  3
isocpeur.ttf
  4

1001
ACAD
1000
ISOCPEUR
1071
      256
  0
STYLE
  5
FB
330
3
100
AcDbSymbolTableRecord
100
AcDbTextStyleTableRecord
  2
StandardFührungslinie-Ursprungsindikator(DIN)
 70
     0
 40
0.0
 41
1.0
 50
0.0
 71
     0
 42
0.2
  3
isocpeur.ttf
  4

1001
ACAD
1000
ISOCPEUR
1071
      256
  0
STYLE
  5
FC
330
3
100
AcDbSymbolTableRecord
100
AcDbTextStyleTableRecord
  2
StandardFührungslinie - Bezugsstelle(DIN)
 70
     0
 40
0.0
 41
1.0
 50
0.0
 71
     0
 42
0.2
  3
isocpeur.ttf
  4

1001
ACAD
1000
ISOCPEUR
1071
      256
  0
STYLE
  5
FD
330
3
100
AcDbSymbolTableRecord
100
AcDbTextStyleTableRecord
  2
StandardFührungslinie - Punkt(DIN)
 70
     0
 40
0.0
 41
1.0
 50
0.0
 71
     0
 42
0.2
  3
isocpeur.ttf
  4

1001
ACAD
1000
ISOCPEUR
1071
      256
  0
STYLE
  5
FE
330
3
100
AcDbSymbolTableRecord
100
AcDbTextStyleTableRecord
  2
StandardFührungslinie(DIN)
 70
     0
 40
0.0
 41
1.0
 50
0.0
 71
     0
 42
0.2
  3
isocpeur.ttf
  4

1001
ACAD
1000
ISOCPEUR
1071
      256
  0
STYLE
  5
FF
330
3
100
AcDbSymbolTableRecord
100
AcDbTextStyleTableRecord
  2
StandardGroß (ISO)
 70
     0
 40
0.0
 41
1.0
 50
0.0
 71
     0
 42
0.2
  3
isocpeur.ttf
  4

1001
ACAD
1000
ISOCPEUR
1071
      256
  0
STYLE
  5
100
330
3
100
AcDbSymbolTableRecord
100
AcDbTextStyleTableRecord
  2
StandardStandard
 70
     0
 40
0.0
 41
1.0
 50
0.0
 71
     0
 42
0.2
  3
isocpeur.ttf
  4

1001
ACAD
1000
ISOCPEUR
1071
      256
  0
STYLE
  5
101
330
3
100
AcDbSymbolTableRecord
100
AcDbTextStyleTableRecord
  2
Stücklistentext
 70
     0
 40
0.0
 41
1.0
 50
0.0
 71
     0
 42
0.2
  3
arial.ttf
  4

1001
ACAD
1000
Arial
1071
      256
  0
STYLE
  5
102
330
3
100
AcDbSymbolTableRecord
100
AcDbTextStyleTableRecord
  2
TextStyle10
 70
     0
 40
0.0
 41
1.0
 50
0.0
 71
     0
 42
0.2
  3
isocpeur.ttf
  4

1001
ACAD
1000
ISOCPEUR
1071
      256
  0
STYLE
  5
103
330
3
100
AcDbSymbolTableRecord
100
AcDbTextStyleTableRecord
  2
TextStyle11
 70
     0
 40
0.0
 41
1.0
 50
0.0
 71
     0
 42
0.2
  3
isocpeur.ttf
  4

1001
ACAD
1000
ISOCPEUR
1071
      256
  0
STYLE
  5
104
330
3
100
AcDbSymbolTableRecord
100
AcDbTextStyleTableRecord
  2
TextStyle12
 70
     0
 40
0.0
 41
1.0
 50
0.0
 71
     0
 42
0.2
  3
isocpeur.ttf
  4

1001
ACAD
1000
ISOCPEUR
1071
      256
  0
STYLE
  5
105
330
3
100
AcDbSymbolTableRecord
100
AcDbTextStyleTableRecord
  2
TextStyle13
 70
     0
 40
0.0
 41
1.0
 50
0.0
 71
     0
 42
0.2
  3
isocpeur.ttf
  4

1001
ACAD
1000
ISOCPEUR
1071
      256
  0
STYLE
  5
106
330
3
100
AcDbSymbolTableRecord
100
AcDbTextStyleTableRecord
  2
TextStyle14
 70
     0
 40
0.0
 41
1.0
 50
0.0
 71
     0
 42
0.2
  3
isocpeur.ttf
  4

1001
ACAD
1000
ISOCPEUR
1071
      256
  0
STYLE
  5
107
330
3
100
AcDbSymbolTableRecord
100
AcDbTextStyleTableRecord
  2
TextStyle15
 70
     0
 40
0.0
 41
1.0
 50
0.0
 71
     0
 42
0.2
  3
isocpeur.ttf
  4

1001
ACAD
1000
ISOCPEUR
1071
      256
  0
STYLE
  5
108
330
3
100
AcDbSymbolTableRecord
100
AcDbTextStyleTableRecord
  2
TextStyle16
 70
     0
 40
0.0
 41
1.0
 50
0.0
 71
     0
 42
0.2
  3
isocpeur.ttf
  4

1001
ACAD
1000
ISOCPEUR
1071
      256
  0
STYLE
  5
109
330
3
100
AcDbSymbolTableRecord
100
AcDbTextStyleTableRecord
  2
TextStyle17
 70
     0
 40
0.0
 41
1.0
 50
0.0
 71
     0
 42
0.2
  3
isocpeur.ttf
  4

1001
ACAD
1000
ISOCPEUR
1071
      256
  0
STYLE
  5
10A
330
3
100
AcDbSymbolTableRecord
100
AcDbTextStyleTableRecord
  2
TextStyle18
 70
     0
 40
0.0
 41
1.0
 50
0.0
 71
     0
 42
0.2
  3
isocpeur.ttf
  4

1001
ACAD
1000
ISOCPEUR
1071
      256
  0
STYLE
  5
10B
330
3
100
AcDbSymbolTableRecord
100
AcDbTextStyleTableRecord
  2
TextStyle19
 70
     0
 40
0.0
 41
1.0
 50
0.0
 71
     0
 42
0.2
  3
isocpeur.ttf
  4

1001
ACAD
1000
ISOCPEUR
1071
      256
  0
STYLE
  5
10C
330
3
100
AcDbSymbolTableRecord
100
AcDbTextStyleTableRecord
  2
TextStyle20
 70
     0
 40
0.0
 41
1.0
 50
0.0
 71
     0
 42
0.2
  3
isocpeur.ttf
  4

1001
ACAD
1000
ISOCPEUR
1071
      256
  0
STYLE
  5
10D
330
3
100
AcDbSymbolTableRecord
100
AcDbTextStyleTableRecord
  2
TextStyle21
 70
     0
 40
0.0
 41
1.0
 50
0.0
 71
     0
 42
0.2
  3
isocpeur.ttf
  4

1001
ACAD
1000
ISOCPEUR
1071
      256
  0
STYLE
  5
10E
330
3
100
AcDbSymbolTableRecord
100
AcDbTextStyleTableRecord
  2
TextStyle22
 70
     0
 40
0.0
 41
1.0
 50
0.0
 71
     0
 42
0.2
  3
isocpeur.ttf
  4

1001
ACAD
1000
ISOCPEUR
1071
      256
  0
STYLE
  5
10F
330
3
100
AcDbSymbolTableRecord
100
AcDbTextStyleTableRecord
  2
TextStyle23
 70
     0
 40
0.0
 41
1.0
 50
0.0
 71
     0
 42
0.2
  3
isocpeur.ttf
  4

1001
ACAD
1000
ISOCPEUR
1071
      256
  0
STYLE
  5
110
330
3
100
AcDbSymbolTableRecord
100
AcDbTextStyleTableRecord
  2
TextStyle24
 70
     0
 40
0.0
 41
1.0
 50
0.0
 71
     0
 42
0.2
  3
isocpeur.ttf
  4

1001
ACAD
1000
ISOCPEUR
1071
      256
  0
STYLE
  5
111
330
3
100
AcDbSymbolTableRecord
100
AcDbTextStyleTableRecord
  2
TextStyle25
 70
     0
 40
0.0
 41
1.0
 50
0.0
 71
     0
 42
0.2
  3
isocpeur.ttf
  4

1001
ACAD
1000
ISOCPEUR
1071
      256
  0
STYLE
  5
112
330
3
100
AcDbSymbolTableRecord
100
AcDbTextStyleTableRecord
  2
TextStyle26
 70
     0
 40
0.0
 41
1.0
 50
0.0
 71
     0
 42
0.2
  3
isocpeur.ttf
  4

1001
ACAD
1000
ISOCPEUR
1071
      256
  0
STYLE
  5
113
330
3
100
AcDbSymbolTableRecord
100
AcDbTextStyleTableRecord
  2
TextStyle27
 70
     0
 40
0.0
 41
1.0
 50
0.0
 71
     0
 42
0.2
  3
isocpeur.ttf
  4

1001
ACAD
1000
ISOCPEUR
1071
      256
  0
STYLE
  5
114
330
3
100
AcDbSymbolTableRecord
100
AcDbTextStyleTableRecord
  2
TextStyle28
 70
     0
 40
0.0
 41
1.0
 50
0.0
 71
     0
 42
0.2
  3
isocpeur.ttf
  4

1001
ACAD
1000
ISOCPEUR
1071
      256
  0
STYLE
  5
115
330
3
100
AcDbSymbolTableRecord
100
AcDbTextStyleTableRecord
  2
TextStyle29
 70
     0
 40
0.0
 41
1.0
 50
0.0
 71
     0
 42
0.2
  3
isocpeur.ttf
  4

1001
ACAD
1000
ISOCPEUR
1071
      256
  0
STYLE
  5
116
330
3
100
AcDbSymbolTableRecord
100
AcDbTextStyleTableRecord
  2
TextStyle30
 70
     0
 40
0.0
 41
1.0
 50
0.0
 71
     0
 42
0.2
  3
isocpeur.ttf
  4

1001
ACAD
1000
ISOCPEUR
1071
      256
  0
STYLE
  5
117
330
3
100
AcDbSymbolTableRecord
100
AcDbTextStyleTableRecord
  2
TextStyle31
 70
     0
 40
0.0
 41
1.0
 50
0.0
 71
     0
 42
0.2
  3
isocpeur.ttf
  4

1001
ACAD
1000
ISOCPEUR
1071
      256
  0
STYLE
  5
118
330
3
100
AcDbSymbolTableRecord
100
AcDbTextStyleTableRecord
  2
TextStyle32
 70
     0
 40
0.0
 41
1.0
 50
0.0
 71
     0
 42
0.2
  3
isocpeur.ttf
  4

1001
ACAD
1000
ISOCPEUR
1071
      256
  0
STYLE
  5
119
330
3
100
AcDbSymbolTableRecord
100
AcDbTextStyleTableRecord
  2
TextStyle33
 70
     0
 40
0.0
 41
1.0
 50
0.0
 71
     0
 42
0.2
  3
isocpeur.ttf
  4

1001
ACAD
1000
ISOCPEUR
1071
      256
  0
STYLE
  5
11A
330
3
100
AcDbSymbolTableRecord
100
AcDbTextStyleTableRecord
  2
Toleranztext
 70
     0
 40
0.0
 41
1.0
 50
0.0
 71
     0
 42
0.2
  3
isocpeur.ttf
  4

1001
ACAD
1000
ISOCPEUR
1071
      256
  0
STYLE
  5
1D9
330
3
100
AcDbSymbolTableRecord
100
AcDbTextStyleTableRecord
  2
Textstil12
 70
     0
 40
0.0
 41
1.0
 50
0.0
 71
     0
 42
0.2
  3
isocpeur.ttf
  4

1001
ACAD
1000
ISOCPEUR
1071
      256
  0
ENDTAB
  0
TABLE
  2
VIEW
  5
6
330
0
100
AcDbSymbolTable
 70
     0
  0
ENDTAB
  0
TABLE
  2
UCS
  5
7
330
0
100
AcDbSymbolTable
 70
     0
  0
ENDTAB
  0
TABLE
  2
APPID
  5
9
330
0
100
AcDbSymbolTable
 70
     3
  0
APPID
  5
56
330
9
100
AcDbSymbolTableRecord
100
AcDbRegAppTableRecord
  2
ACAD
 70
     0
  0
APPID
  5
5E
330
9
100
AcDbSymbolTableRecord
100
AcDbRegAppTableRecord
  2
AcadAnnotative
 70
     0
  0
APPID
  5
1B2
330
9
100
AcDbSymbolTableRecord
100
AcDbRegAppTableRecord
  2
AcadAnnoPO
 70
     0
  0
ENDTAB
  0
TABLE
  2
DIMSTYLE
  5
A
330
0
100
AcDbSymbolTable
 70
    37
100
AcDbDimStyleTable
 71
     2
340
153
340
58
  0
DIMSTYLE
105
58
330
A
100
AcDbSymbolTableRecord
100
AcDbDimStyleTableRecord
  2
Standard
 70
     0
 41
0.1800000071525574
 43
0.3800000000000001
 44
0.18
 45
0.00000001
140
0.1800000071525574
143
1.0
147
0.0900000035762787
176
   256
177
   256
178
   256
340
100
371
    -1
372
    -1
  0
DIMSTYLE
105
59
330
A
100
AcDbSymbolTableRecord
100
AcDbDimStyleTableRecord
  2
Annotative
 70
     0
 41
0.1800000071525574
 43
0.3800000000000001
 44
0.18
 45
0.00000001
140
0.1800000071525574
143
1.0
147
0.0900000035762787
176
   256
177
   256
178
   256
340
F9
371
    -1
372
    -1
1001
AcadAnnotative
1000
AnnotativeData
1002
{
1070
     1
1070
     1
1002
}
  0
DIMSTYLE
105
11B
330
A
100
AcDbSymbolTableRecord
100
AcDbDimStyleTableRecord
  2
Alternativ (ISO)
 70
     0
 41
2.5
 43
0.3800000000000001
 44
0.18
 45
0.00000001
140
0.1800000071525574
143
1.0
147
0.0900000035762787
176
   256
177
   256
178
   256
340
F8
371
    -1
372
    -1
  0
DIMSTYLE
105
11C
330
A
100
AcDbSymbolTableRecord
100
AcDbDimStyleTableRecord
  2
Alternativ (ISO)$7
 70
     0
 41
2.5
 43
0.3800000000000001
 44
0.18
 45
0.00000001
140
0.1800000071525574
143
1.0
147
0.0900000035762787
176
   256
177
   256
178
   256
340
F8
371
    -1
372
    -1
  0
DIMSTYLE
105
11D
330
A
100
AcDbSymbolTableRecord
100
AcDbDimStyleTableRecord
  2
Annotative$7
 70
     0
 41
0.1800000071525574
 43
0.3800000000000001
 44
0.18
 45
0.00000001
140
0.1800000071525574
143
1.0
147
0.0900000035762787
176
   256
177
   256
178
   256
340
F9
371
    -1
372
    -1
1001
AcadAnnotative
1000
AnnotativeData
1002
{
1070
     1
1070
     1
1002
}
  0
DIMSTYLE
105
129
330
A
100
AcDbSymbolTableRecord
100
AcDbDimStyleTableRecord
  2
Bezug (ISO)
 70
     0
 41
2.5
 43
0.3800000000000001
 44
0.18
 45
0.00000001
140
0.1800000071525574
143
1.0
147
0.0900000035762787
176
   256
177
   256
178
   256
340
FA
341
11E
371
    -1
372
    -1
  0
DIMSTYLE
105
12A
330
A
100
AcDbSymbolTableRecord
100
AcDbDimStyleTableRecord
  2
Bezug (ISO)$7
 70
     0
 41
2.5
 43
0.3800000000000001
 44
0.18
 45
0.00000001
140
0.1800000071525574
143
1.0
147
0.0900000035762787
176
   256
177
   256
178
   256
340
FA
341
11E
371
    -1
372
    -1
  0
DIMSTYLE
105
12B
330
A
100
AcDbSymbolTableRecord
100
AcDbDimStyleTableRecord
  2
Durchmesser (DIN)
 70
     0
 41
2.5
 42
0.8
 43
5.999999999999999
 44
3.174999999999999
 45
0.00000001
 46
10.0
 73
     0
 74
     0
 77
     1
 78
     8
140
3.5
143
0.03937
147
0.8
171
     3
172
     1
176
   256
177
   256
178
   256
271
     2
272
     2
274
     3
278
    44
284
     8
340
F1
371
    -1
372
    -1
  0
DIMSTYLE
105
12C
330
A
100
AcDbSymbolTableRecord
100
AcDbDimStyleTableRecord
  2
Durchmesser (DIN)$7
 70
     0
 41
2.5
 42
0.8
 43
5.999999999999999
 44
3.174999999999999
 45
0.00000001
 46
10.0
 73
     0
 74
     0
 77
     1
 78
     8
140
3.5
143
0.03937
147
0.8000000119209289
171
     3
172
     1
176
   256
177
   256
178
   256
271
     2
272
     2
274
     3
278
    44
284
     8
340
F2
371
    -1
372
    -1
  0
DIMSTYLE
105
12D
330
A
100
AcDbSymbolTableRecord
100
AcDbDimStyleTableRecord
  2
Durchmesser (DIN)$7$7
 70
     0
 41
2.5
 42
0.8
 43
5.999999999999999
 44
3.174999999999999
 45
0.00000001
 46
10.0
 73
     0
 74
     0
 77
     1
 78
     8
140
3.5
143
0.03937
147
0.8000000119209289
171
     3
172
     1
176
   256
177
   256
178
   256
271
     2
272
     2
274
     3
278
    44
284
     8
340
F2
371
    -1
372
    -1
  0
DIMSTYLE
105
12E
330
A
100
AcDbSymbolTableRecord
100
AcDbDimStyleTableRecord
  2
Führungslinie-Ursprungsindikator(DIN)
 70
     0
 41
2.5
 43
0.3800000000000001
 44
0.18
 45
0.00000001
140
0.1800000071525574
143
1.0
147
0.0900000035762787
176
   256
177
   256
178
   256
340
FB
371
    -1
372
    -1
  0
DIMSTYLE
105
12F
330
A
100
AcDbSymbolTableRecord
100
AcDbDimStyleTableRecord
  2
Führungslinie-Ursprungsindikator(DIN)$7
 70
     0
 41
2.5
 43
0.3800000000000001
 44
0.18
 45
0.00000001
140
0.1800000071525574
143
1.0
147
0.0900000035762787
176
     7
177
   256
178
   256
340
FB
371
    -1
372
    -1
  0
DIMSTYLE
105
130
330
A
100
AcDbSymbolTableRecord
100
AcDbDimStyleTableRecord
  2
Führungslinie - Bezugsstelle(DIN)
 70
     0
 41
2.5
 43
0.3800000000000001
 44
0.18
 45
0.00000001
140
0.1800000071525574
143
1.0
147
0.0900000035762787
176
   256
177
   256
178
   256
340
FC
341
11E
371
    -1
372
    -1
  0
DIMSTYLE
105
131
330
A
100
AcDbSymbolTableRecord
100
AcDbDimStyleTableRecord
  2
Führungslinie - Bezugsstelle(DIN)$7
 70
     0
 41
2.5
 43
0.3800000000000001
 44
0.18
 45
0.00000001
140
0.1800000071525574
143
1.0
147
0.0900000035762787
176
   179
177
   256
178
   256
340
FC
341
11E
371
    25
372
    -1
  0
DIMSTYLE
105
132
330
A
100
AcDbSymbolTableRecord
100
AcDbDimStyleTableRecord
  2
Führungslinie - Punkt(DIN)
 70
     0
 41
2.5
 43
0.3800000000000001
 44
0.18
 45
0.00000001
140
0.1800000071525574
143
1.0
147
0.0900000035762787
176
   256
177
   256
178
   256
340
FD
371
    -1
372
    -1
  0
DIMSTYLE
105
133
330
A
100
AcDbSymbolTableRecord
100
AcDbDimStyleTableRecord
  2
Führungslinie - Punkt(DIN)$7
 70
     0
 41
2.5
 43
0.3800000000000001
 44
0.18
 45
0.00000001
140
0.1800000071525574
143
1.0
147
0.0900000035762787
176
   179
177
   256
178
   256
340
FD
371
    25
372
    -1
  0
DIMSTYLE
105
134
330
A
100
AcDbSymbolTableRecord
100
AcDbDimStyleTableRecord
  2
Führungslinie(DIN)
 70
     0
 41
2.5
 43
0.3800000000000001
 44
0.18
 45
0.00000001
140
0.1800000071525574
143
1.0
147
0.0900000035762787
176
   256
177
   256
178
   256
340
FE
371
    -1
372
    -1
  0
DIMSTYLE
105
135
330
A
100
AcDbSymbolTableRecord
100
AcDbDimStyleTableRecord
  2
Führungslinie(DIN)$7
 70
     0
 41
2.5
 43
0.3800000000000001
 44
0.18
 45
0.00000001
140
0.1800000071525574
143
1.0
147
0.0900000035762787
176
   179
177
   256
178
   256
340
FE
371
    25
372
    -1
  0
DIMSTYLE
105
144
330
A
100
AcDbSymbolTableRecord
100
AcDbDimStyleTableRecord
  2
Groß (ISO)
 70
     0
 41
5.0
 43
0.3800000000000001
 44
0.18
 45
0.00000001
140
0.1800000071525574
143
1.0
147
0.0900000035762787
176
   256
177
   256
178
   256
340
FF
341
136
371
    -1
372
    -1
  0
DIMSTYLE
105
145
330
A
100
AcDbSymbolTableRecord
100
AcDbDimStyleTableRecord
  2
Groß (ISO)$7
 70
     0
 41
5.0
 43
0.3800000000000001
 44
0.18
 45
0.00000001
140
0.1800000071525574
143
1.0
147
0.0900000035762787
176
   256
177
   256
178
   256
340
FF
341
136
371
    25
372
    -1
  0
DIMSTYLE
105
146
330
A
100
AcDbSymbolTableRecord
100
AcDbDimStyleTableRecord
  2
Standard$7
 70
     0
 41
0.1800000071525574
 43
0.3800000000000001
 44
0.18
 45
0.00000001
140
0.1800000071525574
143
1.0
147
0.0900000035762787
176
   256
177
   256
178
   256
340
100
371
    -1
372
    -1
  0
DIMSTYLE
105
147
330
A
100
AcDbSymbolTableRecord
100
AcDbDimStyleTableRecord
  2
STANDARD-DIN
 70
     0
 41
2.5
 42
0.0
 43
5.999999999999999
 44
3.174999999999999
 45
0.00000001
 46
10.0
 73
     0
 74
     0
 77
     1
140
3.5
143
0.03937
147
0.8
171
     3
172
     1
176
   250
177
   250
178
   250
271
     2
272
     2
274
     3
278
    44
340
F6
371
    25
372
    25
  0
DIMSTYLE
105
148
330
A
100
AcDbSymbolTableRecord
100
AcDbDimStyleTableRecord
  2
STANDARD-DIN$7
 70
     0
 41
2.5
 42
0.0
 43
5.999999999999999
 44
3.174999999999999
 45
0.00000001
 46
10.0
 73
     0
 74
     0
 77
     1
140
3.5
143
0.03937
147
0.8000000119209289
171
     3
172
     1
176
   179
177
   179
178
   250
271
     2
272
     2
274
     3
278
    44
340
F7
371
    25
372
    25
  0
DIMSTYLE
105
149
330
A
100
AcDbSymbolTableRecord
100
AcDbDimStyleTableRecord
  2
STANDARD-DIN$7$7
 70
     0
 41
2.5
 42
0.0
 43
5.999999999999999
 44
3.174999999999999
 45
0.00000001
 46
10.0
 73
     0
 74
     0
 77
     1
140
3.5
143
0.03937
147
0.8000000119209289
171
     3
172
     1
176
   179
177
   179
178
   250
271
     2
272
     2
274
     3
278
    44
340
F7
371
    25
372
    25
  0
DIMSTYLE
105
14A
330
A
100
AcDbSymbolTableRecord
100
AcDbDimStyleTableRecord
  2
STANDARD-DINGroßer Text
 70
     0
 41
5.0
 42
0.0
 43
5.999999999999999
 44
3.174999999999999
 45
0.00000001
 46
10.0
 73
     0
 74
     0
 77
     1
140
5.25
143
0.03937
146
0.6666666865348816
147
0.8
171
     3
172
     1
176
   250
177
   250
178
   179
271
     2
272
     2
274
     3
278
    44
340
ED
371
    25
372
    25
  0
DIMSTYLE
105
14B
330
A
100
AcDbSymbolTableRecord
100
AcDbDimStyleTableRecord
  2
STANDARD-DINGroßer Text$7
 70
     0
 41
5.0
 42
0.0
 43
5.999999999999999
 44
3.174999999999999
 45
0.00000001
 46
10.0
 73
     0
 74
     0
 77
     1
140
5.25
143
0.03937
146
0.6666666865348816
147
0.8000000119209289
171
     3
172
     1
176
   179
177
   179
178
   179
271
     2
272
     2
274
     3
278
    44
340
EE
371
    25
372
    25
  0
DIMSTYLE
105
14C
330
A
100
AcDbSymbolTableRecord
100
AcDbDimStyleTableRecord
  2
STANDARD-DINGroßer Text$7$7
 70
     0
 41
5.0
 42
0.0
 43
5.999999999999999
 44
3.174999999999999
 45
0.00000001
 46
10.0
 73
     0
 74
     0
 77
     1
140
5.25
143
0.03937
146
0.6666666865348816
147
0.8000000119209289
171
     3
172
     1
176
   179
177
   179
178
   179
271
     2
272
     2
274
     3
278
    44
340
EE
371
    25
372
    25
  0
DIMSTYLE
105
14D
330
A
100
AcDbSymbolTableRecord
100
AcDbDimStyleTableRecord
  2
Standard - Methode 2a (DIN)
 70
     0
 41
2.5
 42
0.8
 43
5.999999999999999
 44
3.174999999999999
 45
0.00000001
 46
10.0
 77
     1
 78
     8
 79
     2
140
3.5
143
0.03937
147
0.8
170
     1
171
     3
172
     1
176
   256
177
   256
178
   256
179
     2
271
     2
272
     2
274
     3
278
    44
284
     8
286
     8
340
F1
371
    -1
372
    -1
  0
DIMSTYLE
105
14E
330
A
100
AcDbSymbolTableRecord
100
AcDbDimStyleTableRecord
  2
Standard - Methode 2a (DIN)$7
 70
     0
 41
2.5
 42
0.8
 43
5.999999999999999
 44
3.174999999999999
 45
0.00000001
 46
10.0
 77
     1
 78
     8
 79
     2
140
3.5
143
0.03937
147
0.8000000119209289
170
     1
171
     3
172
     1
176
   256
177
   256
178
   256
179
     2
271
     2
272
     2
274
     3
278
    44
284
     8
286
     8
340
F3
371
    -1
372
    -1
  0
DIMSTYLE
105
14F
330
A
100
AcDbSymbolTableRecord
100
AcDbDimStyleTableRecord
  2
Standard - Methode 2a (DIN)$7$7
 70
     0
 41
2.5
 42
0.8
 43
5.999999999999999
 44
3.174999999999999
 45
0.00000001
 46
10.0
 77
     1
 78
     8
 79
     2
140
3.5
143
0.03937
147
0.8000000119209289
170
     1
171
     3
172
     1
176
   256
177
   256
178
   256
179
     2
271
     2
272
     2
274
     3
278
    44
284
     8
286
     8
340
F3
371
    -1
372
    -1
  0
DIMSTYLE
105
150
330
A
100
AcDbSymbolTableRecord
100
AcDbDimStyleTableRecord
  2
Standard - Methode 2b (DIN)
 70
     0
 41
2.5
 42
0.0
 43
5.999999999999999
 44
3.174999999999999
 45
0.00000001
 46
10.0
 77
     1
 78
     8
 79
     2
140
3.5
143
0.03937
147
0.8
171
     3
172
     1
176
   256
177
   256
178
   256
271
     2
272
     2
274
     3
278
    44
284
     8
286
     8
340
F1
371
    -1
372
    -1
  0
DIMSTYLE
105
151
330
A
100
AcDbSymbolTableRecord
100
AcDbDimStyleTableRecord
  2
Standard - Methode 2b (DIN)$7
 70
     0
 41
2.5
 42
0.0
 43
5.999999999999999
 44
3.174999999999999
 45
0.00000001
 46
10.0
 77
     1
 78
     8
 79
     2
140
3.5
143
0.03937
147
0.8000000119209289
171
     3
172
     1
176
   256
177
   256
178
   256
271
     2
272
     2
274
     3
278
    44
284
     8
286
     8
340
F4
371
    -1
372
    -1
  0
DIMSTYLE
105
152
330
A
100
AcDbSymbolTableRecord
100
AcDbDimStyleTableRecord
  2
Standard - Methode 2b (DIN)$7$7
 70
     0
 41
2.5
 42
0.0
 43
5.999999999999999
 44
3.174999999999999
 45
0.00000001
 46
10.0
 77
     1
 78
     8
 79
     2
140
3.5
143
0.03937
147
0.8000000119209289
171
     3
172
     1
176
   256
177
   256
178
   256
271
     2
272
     2
274
     3
278
    44
284
     8
286
     8
340
F4
371
    -1
372
    -1
  0
DIMSTYLE
105
153
102
{ACAD_REACTORS
330
2FF
330
3ED
330
4DC
330
5CB
330
6B8
330
7A5
102
}
330
A
100
AcDbSymbolTableRecord
100
AcDbDimStyleTableRecord
  2
Standard (DIN)
 70
     0
 41
2.5
 42
0.8
 43
5.999999999999999
 44
1.0
 45
0.00000001
 46
10.0
 73
     0
 74
     0
 77
     1
 78
     8
 79
     2
140
3.5
143
0.03937
146
0.7142857313156128
147
0.8
171
     3
172
     1
176
   256
177
   256
178
   256
271
     2
272
     2
274
     3
278
    44
284
     8
340
F1
371
    -1
372
    -1
  0
DIMSTYLE
105
154
330
A
100
AcDbSymbolTableRecord
100
AcDbDimStyleTableRecord
  2
Standard (DIN)$7
 70
     0
 41
2.5
 42
0.8
 43
5.999999999999999
 44
1.0
 45
0.00000001
 46
10.0
 73
     0
 74
     0
 77
     1
 78
     8
 79
     2
140
3.5
143
0.03937
146
0.7142857313156128
147
0.8000000119209289
171
     3
172
     1
176
   256
177
   256
178
   256
271
     2
272
     2
274
     3
278
    44
284
     8
340
F5
371
    -1
372
    -1
  0
DIMSTYLE
105
155
330
A
100
AcDbSymbolTableRecord
100
AcDbDimStyleTableRecord
  2
Standard (DIN)$7$7
 70
     0
 41
2.5
 42
0.8
 43
5.999999999999999
 44
1.0
 45
0.00000001
 46
10.0
 73
     0
 74
     0
 77
     1
 78
     8
 79
     2
140
3.5
143
0.03937
146
0.7142857313156128
147
0.8000000119209289
171
     3
172
     1
176
   256
177
   256
178
   256
271
     2
272
     2
274
     3
278
    44
284
     8
340
F5
371
    -1
372
    -1
  0
DIMSTYLE
105
156
330
A
100
AcDbSymbolTableRecord
100
AcDbDimStyleTableRecord
  2
Allgemein (ANSI)
 70
     0
 41
2.5
340
55
  0
ENDTAB
  0
TABLE
  2
BLOCK_RECORD
  5
1
330
0
100
AcDbSymbolTable
 70
    33
  0
BLOCK_RECORD
  5
70
330
1
100
AcDbSymbolTableRecord
100
AcDbBlockTableRecord
  2
*Model_Space
340
73
 70
     0
280
     1
281
     0
  0
BLOCK_RECORD
  5
6C
330
1
100
AcDbSymbolTableRecord
100
AcDbBlockTableRecord
  2
*Paper_Space
340
6F
 70
     0
280
     1
281
     0
  0
BLOCK_RECORD
  5
74
330
1
100
AcDbSymbolTableRecord
100
AcDbBlockTableRecord
  2
*Paper_Space0
340
77
 70
     0
280
     1
281
     0
  0
BLOCK_RECORD
  5
11E
330
1
100
AcDbSymbolTableRecord
100
AcDbBlockTableRecord
  2
DatumFilled45
340
0
 70
     0
280
     1
281
     0
  0
BLOCK_RECORD
  5
136
330
1
100
AcDbSymbolTableRecord
100
AcDbBlockTableRecord
  2
Filled-1
340
0
 70
     0
280
     1
281
     0
  0
BLOCK_RECORD
  5
157
330
1
100
AcDbSymbolTableRecord
100
AcDbBlockTableRecord
  2
Werkstückkanten 0_1
340
0
 70
     0
280
     1
281
     0
  0
BLOCK_RECORD
  5
16D
330
1
100
AcDbSymbolTableRecord
100
AcDbBlockTableRecord
  2
Werkstk.kant. 0_2_0_4
340
0
 70
     0
280
     1
281
     0
  0
BLOCK_RECORD
  5
182
330
1
100
AcDbSymbolTableRecord
100
AcDbBlockTableRecord
  2
Tech.Feld Sicken [Stahl]
340
0
 70
     0
280
     1
281
     0
  0
BLOCK_RECORD
  5
18A
330
1
100
AcDbSymbolTableRecord
100
AcDbBlockTableRecord
  2
Tech.Feld Sicken [V2A]
340
0
 70
     0
280
     1
281
     0
  0
BLOCK_RECORD
  5
18E
330
1
100
AcDbSymbolTableRecord
100
AcDbBlockTableRecord
  2
Tech.Feld Sicken [V4A]
340
0
 70
     0
280
     1
281
     0
  0
BLOCK_RECORD
  5
192
330
1
100
AcDbSymbolTableRecord
100
AcDbBlockTableRecord
  2
Ausgefahren
340
0
 70
     0
280
     1
281
     0
  0
BLOCK_RECORD
  5
196
330
1
100
AcDbSymbolTableRecord
100
AcDbBlockTableRecord
  2
Brüniert
340
0
 70
     0
280
     1
281
     0
  0
BLOCK_RECORD
  5
19A
330
1
100
AcDbSymbolTableRecord
100
AcDbBlockTableRecord
  2
Eingefahren
340
0
 70
     0
280
     1
281
     0
  0
BLOCK_RECORD
  5
19E
330
1
100
AcDbSymbolTableRecord
100
AcDbBlockTableRecord
  2
Federlängenberechnung
340
0
 70
     0
280
     1
281
     0
  0
BLOCK_RECORD
  5
1B8
330
1
100
AcDbSymbolTableRecord
100
AcDbBlockTableRecord
  2
Galv. blau verzinkt
340
0
 70
     0
280
     1
281
     0
  0
BLOCK_RECORD
  5
1C0
330
1
100
AcDbSymbolTableRecord
100
AcDbBlockTableRecord
  2
Galv. gelb chromatiert
340
0
 70
     0
280
     1
281
     0
  0
BLOCK_RECORD
  5
1C8
330
1
100
AcDbSymbolTableRecord
100
AcDbBlockTableRecord
  2
Gewinderollen
340
0
 70
     0
280
     1
281
     0
  0
BLOCK_RECORD
  5
1D0
330
1
100
AcDbSymbolTableRecord
100
AcDbBlockTableRecord
  2
Glattwalzen
340
0
 70
     0
280
     1
281
     0
  0
BLOCK_RECORD
  5
1DC
330
1
100
AcDbSymbolTableRecord
100
AcDbBlockTableRecord
  2
Gratfrei
340
0
 70
     0
280
     1
281
     0
  0
BLOCK_RECORD
  5
1E4
330
1
100
AcDbSymbolTableRecord
100
AcDbBlockTableRecord
  2
Hartverchromen
340
0
 70
     0
280
     1
281
     0
  0
BLOCK_RECORD
  5
1EC
330
1
100
AcDbSymbolTableRecord
100
AcDbBlockTableRecord
  2
Nicht Freigegeben
340
0
 70
     0
280
     1
281
     0
  0
BLOCK_RECORD
  5
1F0
330
1
100
AcDbSymbolTableRecord
100
AcDbBlockTableRecord
  2
Außen Werkstückkanten 0_1
340
0
 70
     0
280
     1
281
     0
  0
BLOCK_RECORD
  5
1FC
330
1
100
AcDbSymbolTableRecord
100
AcDbBlockTableRecord
  2
Innen Werkstückkanten 0_1
340
0
 70
     0
280
     1
281
     0
  0
BLOCK_RECORD
  5
208
330
1
100
AcDbSymbolTableRecord
100
AcDbBlockTableRecord
  2
Außen Werkstückkanten 0_2
340
0
 70
     0
280
     1
281
     0
  0
BLOCK_RECORD
  5
214
330
1
100
AcDbSymbolTableRecord
100
AcDbBlockTableRecord
  2
Innen Werkstückkanten 0_2
340
0
 70
     0
280
     1
281
     0
  0
BLOCK_RECORD
  5
220
330
1
100
AcDbSymbolTableRecord
100
AcDbBlockTableRecord
  2
Ölsorten
340
0
 70
     0
280
     1
281
     0
  0
BLOCK_RECORD
  5
289
330
1
100
AcDbSymbolTableRecord
100
AcDbBlockTableRecord
  2
Zeichnungsnummer eingraviert
340
0
 70
     0
280
     1
281
     0
  0
BLOCK_RECORD
  5
291
330
1
100
AcDbSymbolTableRecord
100
AcDbBlockTableRecord
  2
Zeichnungsparameter
340
0
 70
     0
280
     1
281
     0
  0
BLOCK_RECORD
  5
2CE
330
1
100
AcDbSymbolTableRecord
100
AcDbBlockTableRecord
  2
_Closed
340
0
 70
     0
280
     1
281
     0
  0
BLOCK_RECORD
  5
301
330
1
100
AcDbSymbolTableRecord
100
AcDbBlockTableRecord
  2
*D27
340
0
 70
     0
280
     1
281
     0
  0
BLOCK_RECORD
  5
3EE
330
1
100
AcDbSymbolTableRecord
100
AcDbBlockTableRecord
  2
*D28
340
0
 70
     0
280
     1
281
     0
  0
BLOCK_RECORD
  5
4DD
330
1
100
AcDbSymbolTableRecord
100
AcDbBlockTableRecord
  2
*D29
340
0
 70
     0
280
     1
281
     0
  0
BLOCK_RECORD
  5
5CC
330
1
100
AcDbSymbolTableRecord
100
AcDbBlockTableRecord
  2
*D30
340
0
 70
     0
280
     1
281
     0
  0
BLOCK_RECORD
  5
6B9
330
1
100
AcDbSymbolTableRecord
100
AcDbBlockTableRecord
  2
*D31
340
0
 70
     0
280
     1
281
     0
  0
BLOCK_RECORD
  5
7A6
330
1
100
AcDbSymbolTableRecord
100
AcDbBlockTableRecord
  2
*D32
340
0
 70
     0
280
     1
281
     0
  0
ENDTAB
  0
ENDSEC
  0
SECTION
  2
BLOCKS
  0
BLOCK
  5
71
330
70
100
AcDbEntity
  8
0
100
AcDbBlockBegin
  2
*Model_Space
 70
     0
 10
0.0
 20
0.0
 30
0.0
  3
*Model_Space
  1

  0
ENDBLK
  5
72
330
70
100
AcDbEntity
  8
0
100
AcDbBlockEnd
  0
BLOCK
  5
6D
330
6C
100
AcDbEntity
 67
     1
  8
0
100
AcDbBlockBegin
  2
*Paper_Space
 70
     0
 10
0.0
 20
0.0
 30
0.0
  3
*Paper_Space
  1

  0
ENDBLK
  5
6E
330
6C
100
AcDbEntity
 67
     1
  8
0
100
AcDbBlockEnd
  0
BLOCK
  5
75
330
74
100
AcDbEntity
 67
     1
  8
0
100
AcDbBlockBegin
  2
*Paper_Space0
 70
     0
 10
0.0
 20
0.0
 30
0.0
  3
*Paper_Space0
  1

  0
ENDBLK
  5
76
330
74
100
AcDbEntity
 67
     1
  8
0
100
AcDbBlockEnd
  0
BLOCK
  5
11F
330
11E
100
AcDbEntity
  8
0
100
AcDbBlockBegin
  2
DatumFilled45
 70
     0
 10
0.0
 20
0.0
 30
0.0
  3
DatumFilled45
  1

  0
POLYLINE
  5
121
330
11E
100
AcDbEntity
  8
0
 62
     0
100
AcDb2dPolyline
 66
     1
 10
0.0
 20
0.0
 30
0.0
 70
   128
  0
VERTEX
  5
122
330
121
100
AcDbEntity
  8
0
 62
     0
100
AcDbVertex
100
AcDb2dVertex
 10
0.0
 20
1.0
 30
0.0
  0
VERTEX
  5
123
330
121
100
AcDbEntity
  8
0
 62
     0
100
AcDbVertex
100
AcDb2dVertex
 10
0.0
 20
-1.0
 30
0.0
  0
VERTEX
  5
125
330
121
100
AcDbEntity
  8
0
 62
     0
100
AcDbVertex
100
AcDb2dVertex
 10
-1.0
 20
0.0
 30
0.0
  0
VERTEX
  5
126
330
121
100
AcDbEntity
  8
0
 62
     0
100
AcDbVertex
100
AcDb2dVertex
 10
0.0
 20
1.0
 30
0.0
  0
SEQEND
  5
124
330
121
100
AcDbEntity
  8
0
 62
     0
  0
SOLID
  5
128
330
11E
100
AcDbEntity
  8
0
 62
     0
100
AcDbTrace
 10
0.0
 20
1.0
 30
0.0
 11
0.0
 21
-1.0
 31
0.0
 12
-1.0
 22
0.0
 32
0.0
 13
0.0
 23
1.0
 33
0.0
  0
ENDBLK
  5
120
330
11E
100
AcDbEntity
  8
0
100
AcDbBlockEnd
  0
BLOCK
  5
137
330
136
100
AcDbEntity
  8
0
100
AcDbBlockBegin
  2
Filled-1
 70
     0
 10
0.0
 20
0.0
 30
0.0
  3
Filled-1
  1

  0
LINE
  5
139
330
136
100
AcDbEntity
  8
0
 62
     0
100
AcDbLine
 10
-1.0
 20
0.0
 30
0.0
 11
0.0
 21
0.0
 31
0.0
  0
POLYLINE
  5
13A
330
136
100
AcDbEntity
  8
0
 62
     0
100
AcDb2dPolyline
 66
     1
 10
0.0
 20
0.0
 30
0.0
 70
   128
  0
VERTEX
  5
13B
330
13A
100
AcDbEntity
  8
0
 62
     0
100
AcDbVertex
100
AcDb2dVertex
 10
-1.0
 20
-0.1
 30
0.0
  0
VERTEX
  5
13C
330
13A
100
AcDbEntity
  8
0
 62
     0
100
AcDbVertex
100
AcDb2dVertex
 10
0.0
 20
0.0
 30
0.0
  0
VERTEX
  5
13E
330
13A
100
AcDbEntity
  8
0
 62
     0
100
AcDbVertex
100
AcDb2dVertex
 10
-1.0
 20
0.1
 30
0.0
  0
VERTEX
  5
13F
330
13A
100
AcDbEntity
  8
0
 62
     0
100
AcDbVertex
100
AcDb2dVertex
 10
-1.0
 20
-0.1
 30
0.0
  0
SEQEND
  5
13D
330
13A
100
AcDbEntity
  8
0
 62
     0
  0
SOLID
  5
140
330
136
100
AcDbEntity
  8
0
 62
     0
100
AcDbTrace
 10
-1.0
 20
-0.1
 30
0.0
 11
0.0
 21
0.0
 31
0.0
 12
-1.0
 22
0.1
 32
0.0
 13
-1.0
 23
-0.1
 33
0.0
  0
LINE
  5
141
330
136
100
AcDbEntity
  8
0
 62
     0
100
AcDbLine
 10
-1.0
 20
-0.1
 30
0.0
 11
0.0
 21
0.0
 31
0.0
  0
LINE
  5
142
330
136
100
AcDbEntity
  8
0
 62
     0
100
AcDbLine
 10
0.0
 20
0.0
 30
0.0
 11
-1.0
 21
0.1
 31
0.0
  0
LINE
  5
143
330
136
100
AcDbEntity
  8
0
 62
     0
100
AcDbLine
 10
-1.0
 20
0.1
 30
0.0
 11
-1.0
 21
-0.1
 31
0.0
  0
ENDBLK
  5
138
330
136
100
AcDbEntity
  8
0
100
AcDbBlockEnd
  0
BLOCK
  5
158
330
157
100
AcDbEntity
  8
0
100
AcDbBlockBegin
  2
Werkstückkanten 0_1
 70
     0
 10
0.0
 20
0.0
 30
0.0
  3
Werkstückkanten 0_1
  1

  0
LINE
  5
15A
330
157
100
AcDbEntity
  8
Skizziergeometrie (ISO)
100
AcDbLine
 10
-10.0
 20
0.0
 30
0.0
 11
0.0
 21
0.0
 31
0.0
  0
LINE
  5
15B
330
157
100
AcDbEntity
  8
Skizziergeometrie (ISO)
100
AcDbLine
 10
0.0
 20
0.0
 30
0.0
 11
0.0
 21
-5.999999999999996
 31
0.0
  0
LINE
  5
15C
330
157
100
AcDbEntity
  8
Skizziergeometrie (ISO)
100
AcDbLine
 10
0.0
 20
0.0
 30
0.0
 11
5.0
 21
5.0
 31
0.0
  0
LINE
  5
15D
330
157
100
AcDbEntity
  8
Skizziergeometrie (ISO)
100
AcDbLine
 10
5.0
 20
13.0
 30
0.0
 11
5.0
 21
5.0
 31
0.0
  0
LINE
  5
15E
330
157
100
AcDbEntity
  8
Skizziergeometrie (ISO)
100
AcDbLine
 10
5.0
 20
5.0
 30
0.0
 11
13.0
 21
5.0
 31
0.0
  0
LINE
  5
15F
330
157
100
AcDbEntity
  8
Skizziergeometrie (ISO)
100
AcDbLine
 10
0.0
 20
0.0
 30
0.0
 11
1.414213562373056
 21
2.12132034355962
 31
0.0
  0
LINE
  5
160
330
157
100
AcDbEntity
  8
Skizziergeometrie (ISO)
100
AcDbLine
 10
0.0
 20
0.0
 30
0.0
 11
2.121320343559638
 21
1.414213562373056
 31
0.0
  0
LINE
  5
161
330
157
100
AcDbEntity
  8
Skizziergeometrie (ISO)
100
AcDbLine
 10
2.121320343559638
 20
1.414213562373056
 30
0.0
 11
1.414213562373056
 21
2.12132034355962
 31
0.0
  0
LINE
  5
162
330
157
100
AcDbEntity
  8
Skizziergeometrie (ISO)
100
AcDbLine
 10
18.0
 20
0.0
 30
0.0
 11
20.12132034355968
 21
1.414213562373092
 31
0.0
  0
LINE
  5
163
330
157
100
AcDbEntity
  8
Skizziergeometrie (ISO)
100
AcDbLine
 10
18.0
 20
0.0
 30
0.0
 11
19.4142135623731
 21
2.121320343559656
 31
0.0
  0
LINE
  5
164
330
157
100
AcDbEntity
  8
Skizziergeometrie (ISO)
100
AcDbLine
 10
20.12132034355968
 20
1.414213562373092
 30
0.0
 11
19.4142135623731
 21
2.121320343559656
 31
0.0
  0
LINE
  5
165
330
157
100
AcDbEntity
  8
Skizziergeometrie (ISO)
100
AcDbLine
 10
18.0
 20
0.0
 30
0.0
 11
23.00000000000001
 21
5.0
 31
0.0
  0
LINE
  5
166
330
157
100
AcDbEntity
  8
Skizziergeometrie (ISO)
100
AcDbLine
 10
23.00000000000001
 20
5.0
 30
0.0
 11
31.00000000000001
 21
4.999999999999982
 31
0.0
  0
LINE
  5
167
330
157
100
AcDbEntity
  8
Skizziergeometrie (ISO)
100
AcDbLine
 10
22.99999999999997
 20
13.0
 30
0.0
 11
23.00000000000001
 21
5.0
 31
0.0
  0
LINE
  5
168
330
157
100
AcDbEntity
  8
Skizziergeometrie (ISO)
100
AcDbLine
 10
18.0
 20
0.0
 30
0.0
 11
18.00000000000004
 21
5.999999999999996
 31
0.0
  0
LINE
  5
169
330
157
100
AcDbEntity
  8
Skizziergeometrie (ISO)
100
AcDbLine
 10
18.0
 20
0.0
 30
0.0
 11
28.00000000000001
 21
0.0
 31
0.0
  0
MTEXT
  5
16A
330
157
100
AcDbEntity
  8
Symbol (ISO)
100
AcDbMText
 10
5.0
 20
4.534632066885624
 30
0.0
 40
3.499999940395355
 41
11.01623296737671
 46
0.0
 71
     7
 72
     1
  1
-0,10\P-0,05
  7
Notiztext (DIN)
 73
     2
 44
0.8571428656578063
  0
MTEXT
  5
16C
330
157
100
AcDbEntity
  8
Symbol (ISO)
100
AcDbMText
 10
23.00000000000001
 20
4.534632066885624
 30
0.0
 40
3.499999940395355
 41
11.01623296737671
 46
0.0
 71
     7
 72
     1
  1
-0,10\P-0,05
  7
Notiztext (DIN)
 73
     2
 44
0.8571428656578063
  0
ENDBLK
  5
159
330
157
100
AcDbEntity
  8
0
100
AcDbBlockEnd
  0
BLOCK
  5
16E
330
16D
100
AcDbEntity
  8
0
100
AcDbBlockBegin
  2
Werkstk.kant. 0_2_0_4
 70
     0
 10
0.0
 20
0.0
 30
0.0
  3
Werkstk.kant. 0_2_0_4
  1

  0
LINE
  5
170
330
16D
100
AcDbEntity
  8
Skizziergeometrie (ISO)
100
AcDbLine
 10
-10.0
 20
0.0
 30
0.0
 11
0.0
 21
0.0
 31
0.0
  0
LINE
  5
171
330
16D
100
AcDbEntity
  8
Skizziergeometrie (ISO)
100
AcDbLine
 10
0.0
 20
0.0
 30
0.0
 11
0.0
 21
-5.999999999999996
 31
0.0
  0
LINE
  5
172
330
16D
100
AcDbEntity
  8
Skizziergeometrie (ISO)
100
AcDbLine
 10
0.0
 20
0.0
 30
0.0
 11
5.0
 21
5.0
 31
0.0
  0
LINE
  5
173
330
16D
100
AcDbEntity
  8
Skizziergeometrie (ISO)
100
AcDbLine
 10
5.0
 20
13.0
 30
0.0
 11
5.0
 21
5.0
 31
0.0
  0
LINE
  5
174
330
16D
100
AcDbEntity
  8
Skizziergeometrie (ISO)
100
AcDbLine
 10
5.0
 20
5.0
 30
0.0
 11
13.0
 21
5.0
 31
0.0
  0
LINE
  5
175
330
16D
100
AcDbEntity
  8
Skizziergeometrie (ISO)
100
AcDbLine
 10
0.0
 20
0.0
 30
0.0
 11
1.414213562373056
 21
2.12132034355962
 31
0.0
  0
LINE
  5
176
330
16D
100
AcDbEntity
  8
Skizziergeometrie (ISO)
100
AcDbLine
 10
0.0
 20
0.0
 30
0.0
 11
2.121320343559638
 21
1.414213562373056
 31
0.0
  0
LINE
  5
177
330
16D
100
AcDbEntity
  8
Skizziergeometrie (ISO)
100
AcDbLine
 10
2.121320343559638
 20
1.414213562373056
 30
0.0
 11
1.414213562373056
 21
2.12132034355962
 31
0.0
  0
LINE
  5
178
330
16D
100
AcDbEntity
  8
Skizziergeometrie (ISO)
100
AcDbLine
 10
18.0
 20
0.0
 30
0.0
 11
20.12132034355968
 21
1.414213562373092
 31
0.0
  0
LINE
  5
179
330
16D
100
AcDbEntity
  8
Skizziergeometrie (ISO)
100
AcDbLine
 10
18.0
 20
0.0
 30
0.0
 11
19.4142135623731
 21
2.121320343559656
 31
0.0
  0
LINE
  5
17A
330
16D
100
AcDbEntity
  8
Skizziergeometrie (ISO)
100
AcDbLine
 10
20.12132034355968
 20
1.414213562373092
 30
0.0
 11
19.4142135623731
 21
2.121320343559656
 31
0.0
  0
LINE
  5
17B
330
16D
100
AcDbEntity
  8
Skizziergeometrie (ISO)
100
AcDbLine
 10
18.0
 20
0.0
 30
0.0
 11
23.00000000000001
 21
5.0
 31
0.0
  0
LINE
  5
17C
330
16D
100
AcDbEntity
  8
Skizziergeometrie (ISO)
100
AcDbLine
 10
23.00000000000001
 20
5.0
 30
0.0
 11
31.00000000000001
 21
4.999999999999982
 31
0.0
  0
LINE
  5
17D
330
16D
100
AcDbEntity
  8
Skizziergeometrie (ISO)
100
AcDbLine
 10
22.99999999999997
 20
13.0
 30
0.0
 11
23.00000000000001
 21
5.0
 31
0.0
  0
LINE
  5
17E
330
16D
100
AcDbEntity
  8
Skizziergeometrie (ISO)
100
AcDbLine
 10
18.0
 20
0.0
 30
0.0
 11
18.00000000000004
 21
5.999999999999996
 31
0.0
  0
LINE
  5
17F
330
16D
100
AcDbEntity
  8
Skizziergeometrie (ISO)
100
AcDbLine
 10
18.0
 20
0.0
 30
0.0
 11
28.00000000000001
 21
0.0
 31
0.0
  0
MTEXT
  5
180
330
16D
100
AcDbEntity
  8
Symbol (ISO)
100
AcDbMText
 10
5.0
 20
4.534632066885624
 30
0.0
 40
3.499999940395355
 41
11.01623296737671
 46
0.0
 71
     7
 72
     1
  1
-0,20\P-0,05
  7
Notiztext (DIN)
 73
     2
 44
0.8571428656578063
  0
MTEXT
  5
181
330
16D
100
AcDbEntity
  8
Symbol (ISO)
100
AcDbMText
 10
23.00000000000001
 20
4.534632066885624
 30
0.0
 40
3.499999940395355
 41
11.36688232421875
 46
0.0
 71
     7
 72
     1
  1
-0,40\P-0,05
  7
Notiztext (DIN)
 73
     2
 44
0.8571428656578063
  0
ENDBLK
  5
16F
330
16D
100
AcDbEntity
  8
0
100
AcDbBlockEnd
  0
BLOCK
  5
183
330
182
100
AcDbEntity
  8
0
100
AcDbBlockBegin
  2
Tech.Feld Sicken [Stahl]
 70
     0
 10
0.0
 20
0.0
 30
0.0
  3
Tech.Feld Sicken [Stahl]
  1

  0
LINE
  5
185
330
182
100
AcDbEntity
  8
Skizziergeometrie (ISO)
100
AcDbLine
 10
-40.0
 20
0.0
 30
0.0
 11
0.0
 21
0.0
 31
0.0
  0
LINE
  5
186
330
182
100
AcDbEntity
  8
Skizziergeometrie (ISO)
100
AcDbLine
 10
0.0
 20
0.0
 30
0.0
 11
0.0
 21
-50.0
 31
0.0
  0
LINE
  5
187
330
182
100
AcDbEntity
  8
Skizziergeometrie (ISO)
100
AcDbLine
 10
0.0
 20
-50.0
 30
0.0
 11
-40.0
 21
-50.0
 31
0.0
  0
LINE
  5
188
330
182
100
AcDbEntity
  8
Skizziergeometrie (ISO)
100
AcDbLine
 10
-40.0
 20
-50.0
 30
0.0
 11
-40.0
 21
0.0
 31
0.0
  0
MTEXT
  5
189
330
182
100
AcDbEntity
  8
Symbol (ISO)
100
AcDbMText
 10
-38.00000000000001
 20
-2.426640808582298
 30
0.0
 40
2.000000029802322
 41
35.94642015076396
 46
0.0
 71
     1
 72
     1
  1
\fISOCPEUR|b0|i0;\H2.0000;Sicken \fAIGDT|b0|i0;\H2.0000;n\fISOCPEUR|b0|i0;\H2.0000; für Stahl Rohre \P \PØ6  = \PØ8  = \PØ10 = \PØ12 =\PØ15 =
  7
Notiztext (DIN)
 73
     2
 44
1.100053191184997
  0
ENDBLK
  5
184
330
182
100
AcDbEntity
  8
0
100
AcDbBlockEnd
  0
BLOCK
  5
18B
330
18A
100
AcDbEntity
  8
0
100
AcDbBlockBegin
  2
Tech.Feld Sicken [V2A]
 70
     0
 10
0.0
 20
0.0
 30
0.0
  3
Tech.Feld Sicken [V2A]
  1

  0
MTEXT
  5
18D
330
18A
100
AcDbEntity
  8
Symbol (ISO)
100
AcDbMText
 10
-22.04383134841919
 20
20.44609114527702
 30
0.0
 40
3.499999940395355
 41
99.11923766011156
 46
0.0
 71
     1
 72
     1
  1
Sicken Ø für Rohre \P \PØ6  = \PØ8  = \PØ10 = \PØ12 =\PØ15 =
  7
Notiztext (DIN)
 73
     2
 44
1.068348050117492
  0
ENDBLK
  5
18C
330
18A
100
AcDbEntity
  8
0
100
AcDbBlockEnd
  0
BLOCK
  5
18F
330
18E
100
AcDbEntity
  8
0
100
AcDbBlockBegin
  2
Tech.Feld Sicken [V4A]
 70
     0
 10
0.0
 20
0.0
 30
0.0
  3
Tech.Feld Sicken [V4A]
  1

  0
MTEXT
  5
191
330
18E
100
AcDbEntity
  8
Symbol (ISO)
100
AcDbMText
 10
-22.04383134841919
 20
20.44609114527702
 30
0.0
 40
3.499999940395355
 41
99.11923766011156
 46
0.0
 71
     1
 72
     1
  1
Sicken Ø für Rohre \P \PØ6  = \PØ8  = \PØ10 = \PØ12 =\PØ15 =
  7
Notiztext (DIN)
 73
     2
 44
1.068348050117492
  0
ENDBLK
  5
190
330
18E
100
AcDbEntity
  8
0
100
AcDbBlockEnd
  0
BLOCK
  5
193
330
192
100
AcDbEntity
  8
0
100
AcDbBlockBegin
  2
Ausgefahren
 70
     0
 10
0.0
 20
0.0
 30
0.0
  3
Ausgefahren
  1

  0
MTEXT
  5
195
330
192
100
AcDbEntity
  8
Symbol (ISO)
100
AcDbMText
 10
0.0
 20
0.0
 30
0.0
 40
3.499999940395355
 41
26.93506479263306
 46
0.0
 71
     5
 72
     1
  1
Ausgefahren
  7
Notiztext (DIN)
 73
     1
 44
1.0
  0
ENDBLK
  5
194
330
192
100
AcDbEntity
  8
0
100
AcDbBlockEnd
  0
BLOCK
  5
197
330
196
100
AcDbEntity
  8
0
100
AcDbBlockBegin
  2
Brüniert
 70
     0
 10
0.0
 20
0.0
 30
0.0
  3
Brüniert
  1

  0
MTEXT
  5
199
330
196
100
AcDbEntity
  8
Symbol (ISO)
100
AcDbMText
 10
0.0
 20
0.0
 30
0.0
 40
3.499999940395355
 41
24.48881556923951
 46
0.0
 71
     5
 72
     1
  1
brüniert
  7
Notiztext (DIN)
 73
     1
 44
1.0
  0
ENDBLK
  5
198
330
196
100
AcDbEntity
  8
0
100
AcDbBlockEnd
  0
BLOCK
  5
19B
330
19A
100
AcDbEntity
  8
0
100
AcDbBlockBegin
  2
Eingefahren
 70
     0
 10
0.0
 20
0.0
 30
0.0
  3
Eingefahren
  1

  0
MTEXT
  5
19D
330
19A
100
AcDbEntity
  8
Symbol (ISO)
100
AcDbMText
 10
0.0
 20
0.0
 30
0.0
 40
3.499999940395355
 41
24.83441591262817
 46
0.0
 71
     5
 72
     1
  1
Eingefahren
  7
Notiztext (DIN)
 73
     1
 44
1.0
  0
ENDBLK
  5
19C
330
19A
100
AcDbEntity
  8
0
100
AcDbBlockEnd
  0
BLOCK
  5
19F
330
19E
100
AcDbEntity
  8
0
100
AcDbBlockBegin
  2
Federlängenberechnung
 70
     2
 10
0.0
 20
0.0
 30
0.0
  3
Federlängenberechnung
  1

  0
LINE
  5
1A1
330
19E
100
AcDbEntity
  8
Skizziergeometrie (ISO)
100
AcDbLine
 10
0.0
 20
20.99999999999998
 30
0.0
 11
149.888669688947
 21
21.00000000000005
 31
0.0
  0
LINE
  5
1A2
330
19E
100
AcDbEntity
  8
Skizziergeometrie (ISO)
100
AcDbLine
 10
149.888669688947
 20
21.00000000000005
 30
0.0
 11
149.888669688947
 21
13.99999999999998
 31
0.0
  0
LINE
  5
1A3
330
19E
100
AcDbEntity
  8
Skizziergeometrie (ISO)
100
AcDbLine
 10
149.888669688947
 20
13.99999999999998
 30
0.0
 11
0.0
 21
13.99999999999998
 31
0.0
  0
LINE
  5
1A4
330
19E
100
AcDbEntity
  8
Skizziergeometrie (ISO)
100
AcDbLine
 10
0.0
 20
13.99999999999998
 30
0.0
 11
0.0
 21
20.99999999999998
 31
0.0
  0
LINE
  5
1A5
330
19E
100
AcDbEntity
  8
Skizziergeometrie (ISO)
100
AcDbLine
 10
0.0
 20
13.99999999999998
 30
0.0
 11
149.888669688947
 21
13.99999999999998
 31
0.0
  0
LINE
  5
1A6
330
19E
100
AcDbEntity
  8
Skizziergeometrie (ISO)
100
AcDbLine
 10
149.888669688947
 20
13.99999999999998
 30
0.0
 11
149.888669688947
 21
6.999999999999992
 31
0.0
  0
LINE
  5
1A7
330
19E
100
AcDbEntity
  8
Skizziergeometrie (ISO)
100
AcDbLine
 10
149.888669688947
 20
6.999999999999992
 30
0.0
 11
0.0
 21
6.999999999999992
 31
0.0
  0
LINE
  5
1A8
330
19E
100
AcDbEntity
  8
Skizziergeometrie (ISO)
100
AcDbLine
 10
0.0
 20
6.999999999999992
 30
0.0
 11
0.0
 21
13.99999999999998
 31
0.0
  0
LINE
  5
1A9
330
19E
100
AcDbEntity
  8
Skizziergeometrie (ISO)
100
AcDbLine
 10
149.888669688947
 20
8.327958252741218
 30
0.0
 11
149.888669688947
 21
0.0
 31
0.0
  0
LINE
  5
1AA
330
19E
100
AcDbEntity
  8
Skizziergeometrie (ISO)
100
AcDbLine
 10
149.888669688947
 20
0.0
 30
0.0
 11
0.0
 21
0.0
 31
0.0
  0
LINE
  5
1AB
330
19E
100
AcDbEntity
  8
Skizziergeometrie (ISO)
100
AcDbLine
 10
0.0
 20
0.0
 30
0.0
 11
0.0
 21
6.999999999999992
 31
0.0
  0
LINE
  5
1AC
330
19E
100
AcDbEntity
  8
Skizziergeometrie (ISO)
100
AcDbLine
 10
0.0
 20
0.0
 30
0.0
 11
149.888669688947
 21
0.0
 31
0.0
  0
LINE
  5
1AD
330
19E
100
AcDbEntity
  8
Skizziergeometrie (ISO)
100
AcDbLine
 10
80.0
 20
21.00000000000001
 30
0.0
 11
80.0
 21
0.0884382381834925
 31
0.0
  0
MTEXT
  5
1AE
330
19E
100
AcDbEntity
  8
Symbol (ISO)
100
AcDbMText
 10
5.0
 20
18.99999999999998
 30
0.0
 40
3.499999940395355
 41
0.0
 46
0.0
 71
     1
 72
     1
  1
Kolbenstange
  7
Notiztext (DIN)
 73
     1
 44
1.0
  0
MTEXT
  5
1AF
330
19E
100
AcDbEntity
  8
Symbol (ISO)
100
AcDbMText
 10
85.0
 20
19.00000000000002
 30
0.0
 40
3.499999940395355
 41
0.0
 46
0.0
 71
     1
 72
     1
  1
1 x HUB + 
  7
Notiztext (DIN)
 73
     1
 44
1.0
  0
ATTDEF
  5
1B0
102
{ACAD_XDICTIONARY
360
892
102
}
330
19E
100
AcDbEntity
  8
Symbol (ISO)
100
AcDbText
 10
116.2125009366513
 20
15.50000005960466
 30
0.0
 40
3.499999940395355
  1

  7
Notiztext (DIN)
 11
116.2125009366513
 21
19.00000000000002
 31
0.0
100
AcDbAttributeDefinition
280
     0
  3
Kolbenstangenlänge = Hub + ? mm
  2
Kolbenstangenlänge_=_Hub_+_?_mm
 70
     0
 74
     3
280
     0
  0
MTEXT
  5
1B3
330
19E
100
AcDbEntity
  8
Symbol (ISO)
100
AcDbMText
 10
5.0
 20
11.99999999999999
 30
0.0
 40
3.499999940395355
 41
0.0
 46
0.0
 71
     1
 72
     1
  1
Gesamtlänge ausgefahren (GL)
  7
Notiztext (DIN)
 73
     1
 44
1.0
  0
MTEXT
  5
1B4
330
19E
100
AcDbEntity
  8
Symbol (ISO)
100
AcDbMText
 10
85.0
 20
11.99999999999999
 30
0.0
 40
3.499999940395355
 41
0.0
 46
0.0
 71
     1
 72
     1
  1
2 x HUB + 
  7
Notiztext (DIN)
 73
     1
 44
1.0
  0
ATTDEF
  5
1B5
102
{ACAD_XDICTIONARY
360
895
102
}
330
19E
100
AcDbEntity
  8
Symbol (ISO)
100
AcDbText
 10
116.2113753446558
 20
8.500000059604637
 30
0.0
 40
3.499999940395355
  1

  7
Notiztext (DIN)
 11
116.2113753446558
 21
11.99999999999999
 31
0.0
100
AcDbAttributeDefinition
280
     0
  3
Gesamtlänge ausgefahren 2 x HUB +
  2
Gesamtlänge_ausgefahren_2_x_HUB_+
 70
     0
 74
     3
280
     0
  0
MTEXT
  5
1B6
330
19E
100
AcDbEntity
  8
Symbol (ISO)
100
AcDbMText
 10
5.0
 20
5.0
 30
0.0
 40
3.499999940395355
 41
0.0
 46
0.0
 71
     1
 72
     1
  1
Einfahrsicherung\P
  7
Notiztext (DIN)
 73
     2
 44
1.068348050117492
  0
MTEXT
  5
1B7
330
19E
100
AcDbEntity
  8
Symbol (ISO)
100
AcDbMText
 10
85.0
 20
5.0
 30
0.0
 40
3.499999940395355
 41
0.0
 46
0.0
 71
     1
 72
     1
  1
GL - 2 x HUB - 61 
  7
Notiztext (DIN)
 73
     1
 44
1.0
  0
ENDBLK
  5
1A0
330
19E
100
AcDbEntity
  8
0
100
AcDbBlockEnd
  0
BLOCK
  5
1B9
330
1B8
100
AcDbEntity
  8
0
100
AcDbBlockBegin
  2
Galv. blau verzinkt
 70
     0
 10
0.0
 20
0.0
 30
0.0
  3
Galv. blau verzinkt
  1

  0
LINE
  5
1BB
330
1B8
100
AcDbEntity
  8
Skizziergeometrie (ISO)
100
AcDbLine
 10
-72.71744259457588
 20
13.49399274657987
 30
0.0
 11
0.0
 21
13.49399274657987
 31
0.0
  0
LINE
  5
1BC
330
1B8
100
AcDbEntity
  8
Skizziergeometrie (ISO)
100
AcDbLine
 10
0.0
 20
13.49399274657987
 30
0.0
 11
0.0
 21
0.0
 31
0.0
  0
LINE
  5
1BD
330
1B8
100
AcDbEntity
  8
Skizziergeometrie (ISO)
100
AcDbLine
 10
0.0
 20
0.0
 30
0.0
 11
-72.71744259457588
 21
0.0
 31
0.0
  0
LINE
  5
1BE
330
1B8
100
AcDbEntity
  8
Skizziergeometrie (ISO)
100
AcDbLine
 10
-72.71744259457588
 20
0.0
 30
0.0
 11
-72.71744259457588
 21
13.49399274657987
 31
0.0
  0
MTEXT
  5
1BF
330
1B8
100
AcDbEntity
  8
Symbol (ISO)
100
AcDbMText
 10
-36.35872129728796
 20
3.735591916700968
 30
0.0
 40
3.499999940395355
 41
72.71744259457584
 46
0.0
 71
     5
 72
     1
  1
Galvanisch blau verzinkt \PSchichtdicke 0,005-0,008 \P
  7
Notiztext (DIN)
 73
     2
 44
1.068348050117492
  0
ENDBLK
  5
1BA
330
1B8
100
AcDbEntity
  8
0
100
AcDbBlockEnd
  0
BLOCK
  5
1C1
330
1C0
100
AcDbEntity
  8
0
100
AcDbBlockBegin
  2
Galv. gelb chromatiert
 70
     0
 10
0.0
 20
0.0
 30
0.0
  3
Galv. gelb chromatiert
  1

  0
LINE
  5
1C3
330
1C0
100
AcDbEntity
  8
Skizziergeometrie (ISO)
100
AcDbLine
 10
-72.71744259457588
 20
13.49399274657987
 30
0.0
 11
0.0
 21
13.49399274657987
 31
0.0
  0
LINE
  5
1C4
330
1C0
100
AcDbEntity
  8
Skizziergeometrie (ISO)
100
AcDbLine
 10
0.0
 20
13.49399274657987
 30
0.0
 11
0.0
 21
0.0
 31
0.0
  0
LINE
  5
1C5
330
1C0
100
AcDbEntity
  8
Skizziergeometrie (ISO)
100
AcDbLine
 10
0.0
 20
0.0
 30
0.0
 11
-72.71744259457588
 21
0.0
 31
0.0
  0
LINE
  5
1C6
330
1C0
100
AcDbEntity
  8
Skizziergeometrie (ISO)
100
AcDbLine
 10
-72.71744259457588
 20
0.0
 30
0.0
 11
-72.71744259457588
 21
13.49399274657987
 31
0.0
  0
MTEXT
  5
1C7
330
1C0
100
AcDbEntity
  8
Symbol (ISO)
100
AcDbMText
 10
-36.35872129728796
 20
3.081118370440876
 30
0.0
 40
3.499999940395355
 41
72.71744259457584
 46
0.0
 71
     5
 72
     1
  1
Galvanisch gelb chromatiert\PSchichtdicke 0,005-0,008\P 
  7
Notiztext (DIN)
 73
     2
 44
1.068348050117492
  0
ENDBLK
  5
1C2
330
1C0
100
AcDbEntity
  8
0
100
AcDbBlockEnd
  0
BLOCK
  5
1C9
330
1C8
100
AcDbEntity
  8
0
100
AcDbBlockBegin
  2
Gewinderollen
 70
     0
 10
0.0
 20
0.0
 30
0.0
  3
Gewinderollen
  1

  0
LINE
  5
1CB
330
1C8
100
AcDbEntity
  8
Skizziergeometrie (ISO)
100
AcDbLine
 10
-40.0
 20
0.0
 30
0.0
 11
0.0
 21
0.0
 31
0.0
  0
LINE
  5
1CC
330
1C8
100
AcDbEntity
  8
Skizziergeometrie (ISO)
100
AcDbLine
 10
0.0
 20
0.0
 30
0.0
 11
0.0
 21
-50.0
 31
0.0
  0
LINE
  5
1CD
330
1C8
100
AcDbEntity
  8
Skizziergeometrie (ISO)
100
AcDbLine
 10
0.0
 20
-50.0
 30
0.0
 11
-40.0
 21
-50.0
 31
0.0
  0
LINE
  5
1CE
330
1C8
100
AcDbEntity
  8
Skizziergeometrie (ISO)
100
AcDbLine
 10
-40.0
 20
-50.0
 30
0.0
 11
-40.0
 21
0.0
 31
0.0
  0
MTEXT
  5
1CF
330
1C8
100
AcDbEntity
  8
Symbol (ISO)
100
AcDbMText
 10
-38.00000000000001
 20
-1.999999999999992
 30
0.0
 40
2.5
 41
36.23144626617432
 46
0.0
 71
     1
 72
     1
  1
\fISOCPEUR|b0|i0;\H2.5000;Gewinderolldurchmesser\PM2    = \PM3.5  =\PM4    =\PM5    =\PM6   =\PM8   =\PM10  =\PM10x1 =
  7
Notiztext (DIN)
 73
     2
 44
1.068348169326782
  0
ENDBLK
  5
1CA
330
1C8
100
AcDbEntity
  8
0
100
AcDbBlockEnd
  0
BLOCK
  5
1D1
330
1D0
100
AcDbEntity
  8
0
100
AcDbBlockBegin
  2
Glattwalzen
 70
     2
 10
0.0
 20
0.0
 30
0.0
  3
Glattwalzen
  1

  0
LINE
  5
1D3
330
1D0
100
AcDbEntity
  8
Skizziergeometrie (ISO)
100
AcDbLine
 10
-40.0
 20
0.0
 30
0.0
 11
0.0
 21
0.0
 31
0.0
  0
LINE
  5
1D4
330
1D0
100
AcDbEntity
  8
Skizziergeometrie (ISO)
100
AcDbLine
 10
0.0
 20
0.0
 30
0.0
 11
0.0
 21
-21.99999999999999
 31
0.0
  0
LINE
  5
1D5
330
1D0
100
AcDbEntity
  8
Skizziergeometrie (ISO)
100
AcDbLine
 10
0.0
 20
-21.99999999999999
 30
0.0
 11
-40.0
 21
-21.99999999999999
 31
0.0
  0
LINE
  5
1D6
330
1D0
100
AcDbEntity
  8
Skizziergeometrie (ISO)
100
AcDbLine
 10
-40.0
 20
-21.99999999999999
 30
0.0
 11
-40.0
 21
0.0
 31
0.0
  0
MTEXT
  5
1D7
330
1D0
100
AcDbEntity
  8
Symbol (ISO)
100
AcDbMText
 10
-38.17811856971261
 20
-8.123323012846874
 30
0.0
 40
2.5
 41
69.99999999999992
 46
0.0
 71
     4
 72
     1
  1
\fISOCPEUR|b0|i0;\H2.5000;Glattgewalzt  \PMaschinen Nr:\PPressdruck:       [bar]
  7
Notiztext (DIN)
 73
     2
 44
1.068348169326782
  0
MTEXT
  5
1D8
330
1D0
100
AcDbEntity
  8
Symbol (ISO)
100
AcDbMText
 10
-38.14068805280748
 20
-15.81452038423169
 30
0.0
 40
1.500000059604644
 41
36.92886657837185
 46
0.0
 71
     1
 72
     1
  1
\fISOCPEUR|b0|i0;\H1.5000;Einstichverfahren (Heckenscheidt)  = A\PRollierverfahren (Baublies) = B
  7
Notiztext (DIN)
 73
     2
 44
1.068348169326782
  0
ATTDEF
  5
1DA
102
{ACAD_XDICTIONARY
360
898
102
}
330
1D0
100
AcDbEntity
  8
Symbol (ISO)
100
AcDbText
 10
-16.01934532153102
 20
-9.113995777682752
 30
0.0
 40
2.5
  1

  7
Textstil12
 11
-16.01934532153102
 21
-6.613995777682752
 31
0.0
100
AcDbAttributeDefinition
280
     0
  3
A oder B
  2
A_oder_B
 70
     0
 74
     3
280
     0
  0
ATTDEF
  5
1DB
102
{ACAD_XDICTIONARY
360
89B
102
}
330
1D0
100
AcDbEntity
  8
Symbol (ISO)
100
AcDbText
 10
-15.62320944112755
 20
-13.54537757685417
 30
0.0
 40
2.5
  1

  7
Textstil12
 72
     1
 11
-15.62320944112755
 21
-12.29537757685417
 31
0.0
100
AcDbAttributeDefinition
280
     0
  3
Druck
  2
Druck
 70
     0
 74
     2
280
     0
  0
ENDBLK
  5
1D2
330
1D0
100
AcDbEntity
  8
0
100
AcDbBlockEnd
  0
BLOCK
  5
1DD
330
1DC
100
AcDbEntity
  8
0
100
AcDbBlockBegin
  2
Gratfrei
 70
     0
 10
0.0
 20
0.0
 30
0.0
  3
Gratfrei
  1

  0
LINE
  5
1DF
330
1DC
100
AcDbEntity
  8
Skizziergeometrie (ISO)
100
AcDbLine
 10
-60.0
 20
8.000000000000007
 30
0.0
 11
0.0
 21
8.000000000000007
 31
0.0
  0
LINE
  5
1E0
330
1DC
100
AcDbEntity
  8
Skizziergeometrie (ISO)
100
AcDbLine
 10
0.0
 20
8.000000000000007
 30
0.0
 11
0.0
 21
0.0
 31
0.0
  0
LINE
  5
1E1
330
1DC
100
AcDbEntity
  8
Skizziergeometrie (ISO)
100
AcDbLine
 10
0.0
 20
0.0
 30
0.0
 11
-60.0
 21
0.0
 31
0.0
  0
LINE
  5
1E2
330
1DC
100
AcDbEntity
  8
Skizziergeometrie (ISO)
100
AcDbLine
 10
-60.0
 20
0.0
 30
0.0
 11
-60.0
 21
8.000000000000007
 31
0.0
  0
MTEXT
  5
1E3
330
1DC
100
AcDbEntity
  8
Symbol (ISO)
100
AcDbMText
 10
-30.0
 20
3.999999999999985
 30
0.0
 40
3.499999940395355
 41
60.0
 46
0.0
 71
     5
 72
     1
  1
Teile gratfrei trowalisieren
  7
Notiztext (DIN)
 73
     1
 44
1.0
  0
ENDBLK
  5
1DE
330
1DC
100
AcDbEntity
  8
0
100
AcDbBlockEnd
  0
BLOCK
  5
1E5
330
1E4
100
AcDbEntity
  8
0
100
AcDbBlockBegin
  2
Hartverchromen
 70
     0
 10
0.0
 20
0.0
 30
0.0
  3
Hartverchromen
  1

  0
LINE
  5
1E7
330
1E4
100
AcDbEntity
  8
Skizziergeometrie (ISO)
100
AcDbLine
 10
-40.0
 20
0.0
 30
0.0
 11
0.0
 21
0.0
 31
0.0
  0
LINE
  5
1E8
330
1E4
100
AcDbEntity
  8
Skizziergeometrie (ISO)
100
AcDbLine
 10
0.0
 20
0.0
 30
0.0
 11
0.0
 21
-11.00000000000001
 31
0.0
  0
LINE
  5
1E9
330
1E4
100
AcDbEntity
  8
Skizziergeometrie (ISO)
100
AcDbLine
 10
0.0
 20
-11.00000000000001
 30
0.0
 11
-40.0
 21
-11.00000000000001
 31
0.0
  0
LINE
  5
1EA
330
1E4
100
AcDbEntity
  8
Skizziergeometrie (ISO)
100
AcDbLine
 10
-40.0
 20
-11.00000000000001
 30
0.0
 11
-40.0
 21
0.0
 31
0.0
  0
MTEXT
  5
1EB
102
{ACAD_XDICTIONARY
360
89F
102
}
330
1E4
100
AcDbEntity
  8
Symbol (ISO)
100
AcDbMText
 10
-38.15352297610843
 20
-7.813772168203421
 30
0.0
 40
3.499999940395355
 41
69.99999999999992
 46
0.0
 71
     4
 72
     1
  1
{\H0.71429x;Hartverchromt\PSchichtdicke 15-20 \fSymbol|b0|i0|c2|p18;m\H1.5044x; \H0.79761x;\P\fISOCPEUR|b0|i0|c0|p34; \H1.5099x; \H0.66228x;\P\H1.659x; }
  7
Notiztext (DIN)
 73
     1
 44
0.5901533365249634
  0
ENDBLK
  5
1E6
330
1E4
100
AcDbEntity
  8
0
100
AcDbBlockEnd
  0
BLOCK
  5
1ED
330
1EC
100
AcDbEntity
  8
0
100
AcDbBlockBegin
  2
Nicht Freigegeben
 70
     0
 10
0.0
 20
0.0
 30
0.0
  3
Nicht Freigegeben
  1

  0
MTEXT
  5
1EF
102
{ACAD_XDICTIONARY
360
8A1
102
}
330
1EC
100
AcDbEntity
  8
Symbol (ISO)
100
AcDbMText
 10
-81.85713768005371
 20
0.0
 30
0.0
 40
3.499999940395355
 41
187.8098945433215
 46
0.0
 71
     4
 72
     1
  1
{\H2x;Nur zur Information\H0.35714x;\P\H5.6x;Nicht Freigegeben !}
  7
Notiztext (DIN)
 73
     1
 44
1.088315844535827
  0
ENDBLK
  5
1EE
330
1EC
100
AcDbEntity
  8
0
100
AcDbBlockEnd
  0
BLOCK
  5
1F1
330
1F0
100
AcDbEntity
  8
0
100
AcDbBlockBegin
  2
Außen Werkstückkanten 0_1
 70
     0
 10
0.0
 20
0.0
 30
0.0
  3
Außen Werkstückkanten 0_1
  1

  0
LINE
  5
1F3
330
1F0
100
AcDbEntity
  8
Skizziergeometrie (ISO)
100
AcDbLine
 10
-13.0
 20
-3.000000000000024
 30
0.0
 11
-3.000000000000007
 21
-3.000000000000007
 31
0.0
  0
LINE
  5
1F4
330
1F0
100
AcDbEntity
  8
Skizziergeometrie (ISO)
100
AcDbLine
 10
-3.000000000000007
 20
-3.000000000000007
 30
0.0
 11
-3.000000000000042
 21
-13.0
 31
0.0
  0
LINE
  5
1F5
330
1F0
100
AcDbEntity
  8
Skizziergeometrie (ISO)
100
AcDbLine
 10
-3.000000000000007
 20
-3.000000000000007
 30
0.0
 11
3.000000000000007
 21
3.000000000000007
 31
0.0
  0
LINE
  5
1F6
330
1F0
100
AcDbEntity
  8
Skizziergeometrie (ISO)
100
AcDbLine
 10
2.999999999999971
 20
13.0
 30
0.0
 11
3.000000000000007
 21
3.000000000000007
 31
0.0
  0
LINE
  5
1F7
330
1F0
100
AcDbEntity
  8
Skizziergeometrie (ISO)
100
AcDbLine
 10
3.000000000000007
 20
3.000000000000007
 30
0.0
 11
13.0
 21
3.000000000000007
 31
0.0
  0
LINE
  5
1F8
330
1F0
100
AcDbEntity
  8
Skizziergeometrie (ISO)
100
AcDbLine
 10
-3.000000000000007
 20
-3.000000000000007
 30
0.0
 11
-1.585786437626914
 21
-0.8786796564403509
 31
0.0
  0
LINE
  5
1F9
330
1F0
100
AcDbEntity
  8
Skizziergeometrie (ISO)
100
AcDbLine
 10
-3.000000000000007
 20
-3.000000000000007
 30
0.0
 11
-0.8786796564403331
 21
-1.585786437626914
 31
0.0
  0
LINE
  5
1FA
330
1F0
100
AcDbEntity
  8
Skizziergeometrie (ISO)
100
AcDbLine
 10
-0.8786796564403331
 20
-1.585786437626914
 30
0.0
 11
-1.585786437626914
 21
-0.8786796564403509
 31
0.0
  0
MTEXT
  5
1FB
330
1F0
100
AcDbEntity
  8
Symbol (ISO)
100
AcDbMText
 10
3.318536116892438
 20
13.88997021779468
 30
0.0
 40
3.499999940395355
 41
20.02001276753013
 46
0.0
 71
     1
 72
     1
  1
-0,10\P-0,05
  7
Notiztext (DIN)
 73
     2
 44
1.068348050117492
  0
ENDBLK
  5
1F2
330
1F0
100
AcDbEntity
  8
0
100
AcDbBlockEnd
  0
BLOCK
  5
1FD
330
1FC
100
AcDbEntity
  8
0
100
AcDbBlockBegin
  2
Innen Werkstückkanten 0_1
 70
     0
 10
0.0
 20
0.0
 30
0.0
  3
Innen Werkstückkanten 0_1
  1

  0
LINE
  5
1FF
330
1FC
100
AcDbEntity
  8
Skizziergeometrie (ISO)
100
AcDbLine
 10
-8.535533905932695
 20
-8.535533905932748
 30
0.0
 11
-6.414213562373021
 21
-7.121320343559638
 31
0.0
  0
LINE
  5
200
330
1FC
100
AcDbEntity
  8
Skizziergeometrie (ISO)
100
AcDbLine
 10
-8.535533905932695
 20
-8.535533905932748
 30
0.0
 11
-7.121320343559602
 21
-6.414213562373074
 31
0.0
  0
LINE
  5
201
330
1FC
100
AcDbEntity
  8
Skizziergeometrie (ISO)
100
AcDbLine
 10
-6.414213562373021
 20
-7.121320343559638
 30
0.0
 11
-7.121320343559602
 21
-6.414213562373074
 31
0.0
  0
LINE
  5
202
330
1FC
100
AcDbEntity
  8
Skizziergeometrie (ISO)
100
AcDbLine
 10
-8.535533905932695
 20
-8.535533905932748
 30
0.0
 11
-1.464466094067269
 21
-1.464466094067233
 31
0.0
  0
LINE
  5
203
330
1FC
100
AcDbEntity
  8
Skizziergeometrie (ISO)
100
AcDbLine
 10
-1.464466094067269
 20
-1.464466094067233
 30
0.0
 11
8.53553390593273
 21
-1.464466094067233
 31
0.0
  0
LINE
  5
204
330
1FC
100
AcDbEntity
  8
Skizziergeometrie (ISO)
100
AcDbLine
 10
-1.464466094067304
 20
8.535533905932766
 30
0.0
 11
-1.464466094067269
 21
-1.464466094067233
 31
0.0
  0
LINE
  5
205
330
1FC
100
AcDbEntity
  8
Skizziergeometrie (ISO)
100
AcDbLine
 10
-8.535533905932695
 20
-8.535533905932748
 30
0.0
 11
-8.53553390593273
 21
1.464466094067251
 31
0.0
  0
LINE
  5
206
330
1FC
100
AcDbEntity
  8
Skizziergeometrie (ISO)
100
AcDbLine
 10
-8.535533905932695
 20
-8.535533905932748
 30
0.0
 11
1.464466094067304
 21
-8.535533905932766
 31
0.0
  0
MTEXT
  5
207
330
1FC
100
AcDbEntity
  8
Symbol (ISO)
100
AcDbMText
 10
-0.8419649278788554
 20
9.466463381905523
 30
0.0
 40
3.499999940395355
 41
20.02001276753013
 46
0.0
 71
     1
 72
     1
  1
+0,10\P+0,05
  7
Notiztext (DIN)
 73
     2
 44
1.068348050117492
  0
ENDBLK
  5
1FE
330
1FC
100
AcDbEntity
  8
0
100
AcDbBlockEnd
  0
BLOCK
  5
209
330
208
100
AcDbEntity
  8
0
100
AcDbBlockBegin
  2
Außen Werkstückkanten 0_2
 70
     0
 10
0.0
 20
0.0
 30
0.0
  3
Außen Werkstückkanten 0_2
  1

  0
LINE
  5
20B
330
208
100
AcDbEntity
  8
Skizziergeometrie (ISO)
100
AcDbLine
 10
-13.0
 20
-3.000000000000024
 30
0.0
 11
-3.000000000000007
 21
-3.000000000000007
 31
0.0
  0
LINE
  5
20C
330
208
100
AcDbEntity
  8
Skizziergeometrie (ISO)
100
AcDbLine
 10
-3.000000000000007
 20
-3.000000000000007
 30
0.0
 11
-3.000000000000042
 21
-13.0
 31
0.0
  0
LINE
  5
20D
330
208
100
AcDbEntity
  8
Skizziergeometrie (ISO)
100
AcDbLine
 10
-3.000000000000007
 20
-3.000000000000007
 30
0.0
 11
3.000000000000007
 21
3.000000000000007
 31
0.0
  0
LINE
  5
20E
330
208
100
AcDbEntity
  8
Skizziergeometrie (ISO)
100
AcDbLine
 10
2.999999999999971
 20
13.0
 30
0.0
 11
3.000000000000007
 21
3.000000000000007
 31
0.0
  0
LINE
  5
20F
330
208
100
AcDbEntity
  8
Skizziergeometrie (ISO)
100
AcDbLine
 10
3.000000000000007
 20
3.000000000000007
 30
0.0
 11
13.0
 21
3.000000000000007
 31
0.0
  0
LINE
  5
210
330
208
100
AcDbEntity
  8
Skizziergeometrie (ISO)
100
AcDbLine
 10
-3.000000000000007
 20
-3.000000000000007
 30
0.0
 11
-1.585786437626914
 21
-0.8786796564403509
 31
0.0
  0
LINE
  5
211
330
208
100
AcDbEntity
  8
Skizziergeometrie (ISO)
100
AcDbLine
 10
-3.000000000000007
 20
-3.000000000000007
 30
0.0
 11
-0.8786796564403331
 21
-1.585786437626914
 31
0.0
  0
LINE
  5
212
330
208
100
AcDbEntity
  8
Skizziergeometrie (ISO)
100
AcDbLine
 10
-0.8786796564403331
 20
-1.585786437626914
 30
0.0
 11
-1.585786437626914
 21
-0.8786796564403509
 31
0.0
  0
MTEXT
  5
213
330
208
100
AcDbEntity
  8
Symbol (ISO)
100
AcDbMText
 10
3.318536116892438
 20
13.88997021779468
 30
0.0
 40
3.499999940395355
 41
20.02001276753013
 46
0.0
 71
     1
 72
     1
  1
-0,20\P-0,05
  7
Notiztext (DIN)
 73
     2
 44
1.068348050117492
  0
ENDBLK
  5
20A
330
208
100
AcDbEntity
  8
0
100
AcDbBlockEnd
  0
BLOCK
  5
215
330
214
100
AcDbEntity
  8
0
100
AcDbBlockBegin
  2
Innen Werkstückkanten 0_2
 70
     0
 10
0.0
 20
0.0
 30
0.0
  3
Innen Werkstückkanten 0_2
  1

  0
LINE
  5
217
330
214
100
AcDbEntity
  8
Skizziergeometrie (ISO)
100
AcDbLine
 10
-8.535533905932695
 20
-8.535533905932748
 30
0.0
 11
-6.414213562373021
 21
-7.121320343559638
 31
0.0
  0
LINE
  5
218
330
214
100
AcDbEntity
  8
Skizziergeometrie (ISO)
100
AcDbLine
 10
-8.535533905932695
 20
-8.535533905932748
 30
0.0
 11
-7.121320343559602
 21
-6.414213562373074
 31
0.0
  0
LINE
  5
219
330
214
100
AcDbEntity
  8
Skizziergeometrie (ISO)
100
AcDbLine
 10
-6.414213562373021
 20
-7.121320343559638
 30
0.0
 11
-7.121320343559602
 21
-6.414213562373074
 31
0.0
  0
LINE
  5
21A
330
214
100
AcDbEntity
  8
Skizziergeometrie (ISO)
100
AcDbLine
 10
-8.535533905932695
 20
-8.535533905932748
 30
0.0
 11
-1.464466094067269
 21
-1.464466094067233
 31
0.0
  0
LINE
  5
21B
330
214
100
AcDbEntity
  8
Skizziergeometrie (ISO)
100
AcDbLine
 10
-1.464466094067269
 20
-1.464466094067233
 30
0.0
 11
8.53553390593273
 21
-1.464466094067233
 31
0.0
  0
LINE
  5
21C
330
214
100
AcDbEntity
  8
Skizziergeometrie (ISO)
100
AcDbLine
 10
-1.464466094067304
 20
8.535533905932766
 30
0.0
 11
-1.464466094067269
 21
-1.464466094067233
 31
0.0
  0
LINE
  5
21D
330
214
100
AcDbEntity
  8
Skizziergeometrie (ISO)
100
AcDbLine
 10
-8.535533905932695
 20
-8.535533905932748
 30
0.0
 11
-8.53553390593273
 21
1.464466094067251
 31
0.0
  0
LINE
  5
21E
330
214
100
AcDbEntity
  8
Skizziergeometrie (ISO)
100
AcDbLine
 10
-8.535533905932695
 20
-8.535533905932748
 30
0.0
 11
1.464466094067304
 21
-8.535533905932766
 31
0.0
  0
MTEXT
  5
21F
330
214
100
AcDbEntity
  8
Symbol (ISO)
100
AcDbMText
 10
-0.8419649278788554
 20
9.466463381905523
 30
0.0
 40
3.499999940395355
 41
20.02001276753013
 46
0.0
 71
     1
 72
     1
  1
+0,20\P+0,05
  7
Notiztext (DIN)
 73
     2
 44
1.068348050117492
  0
ENDBLK
  5
216
330
214
100
AcDbEntity
  8
0
100
AcDbBlockEnd
  0
BLOCK
  5
221
330
220
100
AcDbEntity
  8
0
100
AcDbBlockBegin
  2
Ölsorten
 70
     2
 10
0.0
 20
0.0
 30
0.0
  3
Ölsorten
  1

  0
LINE
  5
223
330
220
100
AcDbEntity
  8
Skizziergeometrie (ISO)
100
AcDbLine
 10
54.00000000000002
 20
73.50000000000005
 30
0.0
 11
-53.99999999999998
 21
73.50000000000005
 31
0.0
  0
LINE
  5
224
330
220
100
AcDbEntity
  8
Skizziergeometrie (ISO)
100
AcDbLine
 10
54.00000000000002
 20
66.50000000000003
 30
0.0
 11
-53.99999999999998
 21
66.50000000000005
 31
0.0
  0
LINE
  5
225
330
220
100
AcDbEntity
  8
Skizziergeometrie (ISO)
100
AcDbLine
 10
-53.99999999999999
 20
66.50000000000005
 30
0.0
 11
-53.99999999999999
 21
73.50000000000005
 31
0.0
  0
LINE
  5
226
330
220
100
AcDbEntity
  8
Skizziergeometrie (ISO)
100
AcDbLine
 10
-53.99999999999999
 20
66.50000000000005
 30
0.0
 11
54.00000000000002
 21
66.50000000000003
 31
0.0
  0
LINE
  5
227
330
220
100
AcDbEntity
  8
Skizziergeometrie (ISO)
100
AcDbLine
 10
-53.99999999999999
 20
59.50000000000002
 30
0.0
 11
54.00000000000002
 21
59.50000000000002
 31
0.0
  0
LINE
  5
228
330
220
100
AcDbEntity
  8
Skizziergeometrie (ISO)
100
AcDbLine
 10
-53.99999999999999
 20
59.50000000000002
 30
0.0
 11
-53.99999999999999
 21
66.50000000000005
 31
0.0
  0
LINE
  5
229
330
220
100
AcDbEntity
  8
Skizziergeometrie (ISO)
100
AcDbLine
 10
-53.99999999999998
 20
31.50000000000002
 30
0.0
 11
54.00000000000002
 21
31.50000000000002
 31
0.0
  0
LINE
  5
22A
330
220
100
AcDbEntity
  8
Skizziergeometrie (ISO)
100
AcDbLine
 10
-53.99999999999998
 20
31.50000000000002
 30
0.0
 11
-53.99999999999999
 21
38.50000000000003
 31
0.0
  0
LINE
  5
22B
330
220
100
AcDbEntity
  8
Skizziergeometrie (ISO)
100
AcDbLine
 10
-53.99999999999999
 20
38.50000000000003
 30
0.0
 11
54.00000000000002
 21
38.50000000000003
 31
0.0
  0
LINE
  5
22C
330
220
100
AcDbEntity
  8
Skizziergeometrie (ISO)
100
AcDbLine
 10
-53.99999999999999
 20
38.50000000000003
 30
0.0
 11
-53.99999999999999
 21
45.50000000000003
 31
0.0
  0
LINE
  5
22D
330
220
100
AcDbEntity
  8
Skizziergeometrie (ISO)
100
AcDbLine
 10
-53.99999999999999
 20
45.50000000000003
 30
0.0
 11
54.00000000000002
 21
45.50000000000003
 31
0.0
  0
LINE
  5
22E
330
220
100
AcDbEntity
  8
Skizziergeometrie (ISO)
100
AcDbLine
 10
-53.99999999999999
 20
45.50000000000003
 30
0.0
 11
-53.99999999999999
 21
52.50000000000003
 31
0.0
  0
LINE
  5
22F
330
220
100
AcDbEntity
  8
Skizziergeometrie (ISO)
100
AcDbLine
 10
-53.99999999999999
 20
52.50000000000003
 30
0.0
 11
54.00000000000002
 21
52.50000000000003
 31
0.0
  0
LINE
  5
230
330
220
100
AcDbEntity
  8
Skizziergeometrie (ISO)
100
AcDbLine
 10
-53.99999999999999
 20
52.50000000000003
 30
0.0
 11
-53.99999999999999
 21
59.50000000000002
 31
0.0
  0
LINE
  5
231
330
220
100
AcDbEntity
  8
Skizziergeometrie (ISO)
100
AcDbLine
 10
-53.99999999999999
 20
3.499999999999996
 30
0.0
 11
54.00000000000002
 21
3.499999999999996
 31
0.0
  0
LINE
  5
232
330
220
100
AcDbEntity
  8
Skizziergeometrie (ISO)
100
AcDbLine
 10
-53.99999999999999
 20
10.5
 30
0.0
 11
54.00000000000002
 21
10.5
 31
0.0
  0
LINE
  5
233
330
220
100
AcDbEntity
  8
Skizziergeometrie (ISO)
100
AcDbLine
 10
-53.99999999999999
 20
17.50000000000001
 30
0.0
 11
54.00000000000002
 21
17.50000000000001
 31
0.0
  0
LINE
  5
234
330
220
100
AcDbEntity
  8
Skizziergeometrie (ISO)
100
AcDbLine
 10
-53.99999999999999
 20
24.50000000000003
 30
0.0
 11
54.00000000000002
 21
24.50000000000003
 31
0.0
  0
LINE
  5
235
330
220
100
AcDbEntity
  8
Skizziergeometrie (ISO)
100
AcDbLine
 10
-53.99999999999998
 20
31.50000000000002
 30
0.0
 11
54.00000000000002
 21
31.50000000000002
 31
0.0
  0
LINE
  5
236
330
220
100
AcDbEntity
  8
Skizziergeometrie (ISO)
100
AcDbLine
 10
-53.99999999999999
 20
3.499999999999996
 30
0.0
 11
-53.99999999999998
 21
62.81560120947453
 31
0.0
  0
LINE
  5
237
330
220
100
AcDbEntity
  8
Skizziergeometrie (ISO)
100
AcDbLine
 10
-53.99999999999998
 20
31.50000000000002
 30
0.0
 11
-53.99999999999966
 21
-73.50000000000005
 31
0.0
  0
LINE
  5
238
330
220
100
AcDbEntity
  8
Skizziergeometrie (ISO)
100
AcDbLine
 10
-53.99999999999999
 20
24.50000000000003
 30
0.0
 11
-53.99999999999998
 21
31.50000000000002
 31
0.0
  0
LINE
  5
239
330
220
100
AcDbEntity
  8
Skizziergeometrie (ISO)
100
AcDbLine
 10
-53.99999999999999
 20
10.5
 30
0.0
 11
-53.99999999999999
 21
17.50000000000001
 31
0.0
  0
LINE
  5
23A
330
220
100
AcDbEntity
  8
Skizziergeometrie (ISO)
100
AcDbLine
 10
-53.99999999999999
 20
17.50000000000001
 30
0.0
 11
-53.99999999999999
 21
24.50000000000003
 31
0.0
  0
LINE
  5
23B
330
220
100
AcDbEntity
  8
Skizziergeometrie (ISO)
100
AcDbLine
 10
46.00000000000001
 20
73.50000000000005
 30
0.0
 11
46.00000000000001
 21
3.499999999999996
 31
0.0
  0
LINE
  5
23C
330
220
100
AcDbEntity
  8
Skizziergeometrie (ISO)
100
AcDbLine
 10
54.00000000000002
 20
73.50000000000005
 30
0.0
 11
54.00000000000002
 21
-73.50000000000005
 31
0.0
  0
LINE
  5
23D
330
220
100
AcDbEntity
  8
Skizziergeometrie (ISO)
100
AcDbLine
 10
3.000000000000007
 20
73.50000000000005
 30
0.0
 11
3.000000000000007
 21
-73.50000000000005
 31
0.0
  0
LINE
  5
23E
330
220
100
AcDbEntity
  8
Skizziergeometrie (ISO)
100
AcDbLine
 10
-53.99999999999999
 20
3.499999999999996
 30
0.0
 11
-53.9999999999998
 21
-45.50000000000007
 31
0.0
  0
LINE
  5
23F
330
220
100
AcDbEntity
  8
Skizziergeometrie (ISO)
100
AcDbLine
 10
-53.9999999999998
 20
-45.50000000000007
 30
0.0
 11
54.00000000000003
 21
-45.50000000000003
 31
0.0
  0
LINE
  5
240
330
220
100
AcDbEntity
  8
Skizziergeometrie (ISO)
100
AcDbLine
 10
46.00000000000001
 20
-73.50000000000005
 30
0.0
 11
46.00000000000001
 21
3.499999999999996
 31
0.0
  0
LINE
  5
241
330
220
100
AcDbEntity
  8
Skizziergeometrie (ISO)
100
AcDbLine
 10
-54.00000000000002
 20
-3.500000000000049
 30
0.0
 11
54.00000000000002
 21
-3.499999999999996
 31
0.0
  0
LINE
  5
242
330
220
100
AcDbEntity
  8
Skizziergeometrie (ISO)
100
AcDbLine
 10
-53.99999999999992
 20
-10.50000000000008
 30
0.0
 11
54.00000000000002
 21
-10.5
 31
0.0
  0
LINE
  5
243
330
220
100
AcDbEntity
  8
Skizziergeometrie (ISO)
100
AcDbLine
 10
-53.99999999999988
 20
-17.49999999999982
 30
0.0
 11
54.00000000000002
 21
-17.50000000000001
 31
0.0
  0
LINE
  5
244
330
220
100
AcDbEntity
  8
Skizziergeometrie (ISO)
100
AcDbLine
 10
-53.9999999999999
 20
-24.49999999999999
 30
0.0
 11
54.00000000000002
 21
-24.50000000000002
 31
0.0
  0
LINE
  5
245
330
220
100
AcDbEntity
  8
Skizziergeometrie (ISO)
100
AcDbLine
 10
-53.99999999999991
 20
-31.50000000000002
 30
0.0
 11
54.00000000000003
 21
-31.50000000000002
 31
0.0
  0
LINE
  5
246
330
220
100
AcDbEntity
  8
Skizziergeometrie (ISO)
100
AcDbLine
 10
-53.99999999999986
 20
-38.50000000000005
 30
0.0
 11
54.00000000000002
 21
-38.50000000000003
 31
0.0
  0
LINE
  5
247
330
220
100
AcDbEntity
  8
Skizziergeometrie (ISO)
100
AcDbLine
 10
-53.99999999999981
 20
-52.49999999999996
 30
0.0
 11
54.00000000000002
 21
-52.50000000000003
 31
0.0
  0
LINE
  5
248
330
220
100
AcDbEntity
  8
Skizziergeometrie (ISO)
100
AcDbLine
 10
-53.99999999999976
 20
-59.49999999999999
 30
0.0
 11
54.00000000000002
 21
-59.50000000000004
 31
0.0
  0
LINE
  5
249
330
220
100
AcDbEntity
  8
Skizziergeometrie (ISO)
100
AcDbLine
 10
-53.99999999999974
 20
-66.50000000000003
 30
0.0
 11
54.00000000000002
 21
-66.50000000000004
 31
0.0
  0
LINE
  5
24A
330
220
100
AcDbEntity
  8
Skizziergeometrie (ISO)
100
AcDbLine
 10
-53.99999999999966
 20
-73.50000000000005
 30
0.0
 11
54.00000000000003
 21
-73.50000000000005
 31
0.0
  0
MTEXT
  5
24B
330
220
100
AcDbEntity
  8
Symbol (ISO)
100
AcDbMText
 10
-49.0
 20
64.50000000000002
 30
0.0
 40
3.499999940395355
 41
0.0
 46
0.0
 71
     1
 72
     1
  1
SHC 630
  7
Notiztext (DIN)
 73
     1
 44
1.0
  0
MTEXT
  5
24C
330
220
100
AcDbEntity
  8
Symbol (ISO)
100
AcDbMText
 10
-48.99999999999998
 20
57.50000000000003
 30
0.0
 40
3.499999940395355
 41
0.0
 46
0.0
 71
     1
 72
     1
  1
HLP 46
  7
Notiztext (DIN)
 73
     1
 44
1.0
  0
MTEXT
  5
24D
330
220
100
AcDbEntity
  8
Symbol (ISO)
100
AcDbMText
 10
-48.99999999999998
 20
50.50000000000004
 30
0.0
 40
3.499999940395355
 41
0.0
 46
0.0
 71
     1
 72
     1
  1
HLP 220
  7
Notiztext (DIN)
 73
     1
 44
1.0
  0
MTEXT
  5
24E
330
220
100
AcDbEntity
  8
Symbol (ISO)
100
AcDbMText
 10
-48.99999999999999
 20
43.50000000000003
 30
0.0
 40
3.499999940395355
 41
0.0
 46
0.0
 71
     1
 72
     1
  1
Bartran
  7
Notiztext (DIN)
 73
     1
 44
1.0
  0
MTEXT
  5
24F
330
220
100
AcDbEntity
  8
Symbol (ISO)
100
AcDbMText
 10
-48.99999999999998
 20
29.50000000000003
 30
0.0
 40
3.499999940395355
 41
0.0
 46
0.0
 71
     1
 72
     1
  1
Nuto 320
  7
Notiztext (DIN)
 73
     1
 44
1.0
  0
MTEXT
  5
250
330
220
100
AcDbEntity
  8
Symbol (ISO)
100
AcDbMText
 10
-48.99999999999999
 20
36.50000000000004
 30
0.0
 40
3.499999940395355
 41
0.0
 46
0.0
 71
     1
 72
     1
  1
Puri 46
  7
Notiztext (DIN)
 73
     1
 44
1.0
  0
MTEXT
  5
251
330
220
100
AcDbEntity
  8
Symbol (ISO)
100
AcDbMText
 10
-48.99999999999998
 20
22.50000000000003
 30
0.0
 40
3.499999940395355
 41
0.0
 46
0.0
 71
     1
 72
     1
  1
SHC 224
  7
Notiztext (DIN)
 73
     1
 44
1.0
  0
MTEXT
  5
252
330
220
100
AcDbEntity
  8
Symbol (ISO)
100
AcDbMText
 10
-39.09914821339648
 20
73.50000000000005
 30
0.0
 40
3.499999940395355
 41
0.0
 46
0.0
 71
     2
 72
     1
  1
Ölsorten
  7
Notiztext (DIN)
 73
     1
 44
1.0
  0
MTEXT
  5
253
330
220
100
AcDbEntity
  8
Symbol (ISO)
100
AcDbMText
 10
22.75590905750731
 20
71.38536828881055
 30
0.0
 40
3.499999940395355
 41
0.0
 46
0.0
 71
     2
 72
     1
  1
Artikelnummer
  7
Notiztext (DIN)
 73
     1
 44
1.0
  0
MTEXT
  5
254
330
220
100
AcDbEntity
  8
Symbol (ISO)
100
AcDbMText
 10
-48.99999999999998
 20
15.50000000000002
 30
0.0
 40
3.499999940395355
 41
0.0
 46
0.0
 71
     1
 72
     1
  1
ATF Suffix
  7
Notiztext (DIN)
 73
     1
 44
1.0
  0
MTEXT
  5
255
330
220
100
AcDbEntity
  8
Symbol (ISO)
100
AcDbMText
 10
-48.99999999999998
 20
8.500000000000014
 30
0.0
 40
3.499999940395355
 41
0.0
 46
0.0
 71
     1
 72
     1
  1
Univis HVI 26
  7
Notiztext (DIN)
 73
     1
 44
1.0
  0
MTEXT
  5
256
330
220
100
AcDbEntity
  8
Symbol (ISO)
100
AcDbMText
 10
-48.99999999999998
 20
1.500000000000003
 30
0.0
 40
3.499999940395355
 41
0.0
 46
0.0
 71
     1
 72
     1
  1
Nuto H 68
  7
Notiztext (DIN)
 73
     1
 44
1.0
  0
MTEXT
  5
257
330
220
100
AcDbEntity
  8
Symbol (ISO)
100
AcDbMText
 10
-48.99999999999998
 20
-5.499999999999989
 30
0.0
 40
3.499999940395355
 41
0.0
 46
0.0
 71
     1
 72
     1
  1
Vebis K32
  7
Notiztext (DIN)
 73
     1
 44
1.0
  0
MTEXT
  5
258
330
220
100
AcDbEntity
  8
Symbol (ISO)
100
AcDbMText
 10
-48.99999999999998
 20
-12.5
 30
0.0
 40
3.499999940395355
 41
0.0
 46
0.0
 71
     1
 72
     1
  1
Vebis K68
  7
Notiztext (DIN)
 73
     1
 44
1.0
  0
MTEXT
  5
259
330
220
100
AcDbEntity
  8
Symbol (ISO)
100
AcDbMText
 10
-48.99999999999998
 20
-19.50000000000001
 30
0.0
 40
3.499999940395355
 41
0.0
 46
0.0
 71
     1
 72
     1
  1
HLP 32
  7
Notiztext (DIN)
 73
     1
 44
1.0
  0
MTEXT
  5
25A
330
220
100
AcDbEntity
  8
Symbol (ISO)
100
AcDbMText
 10
-48.99999999999998
 20
-26.50000000000002
 30
0.0
 40
3.499999940395355
 41
0.0
 46
0.0
 71
     1
 72
     1
  1
HLP 100
  7
Notiztext (DIN)
 73
     1
 44
1.0
  0
MTEXT
  5
25B
330
220
100
AcDbEntity
  8
Symbol (ISO)
100
AcDbMText
 10
-48.99999999999999
 20
-33.50000000000002
 30
0.0
 40
3.499999940395355
 41
0.0
 46
0.0
 71
     1
 72
     1
  1
AWH-M32
  7
Notiztext (DIN)
 73
     1
 44
1.0
  0
MTEXT
  5
25C
330
220
100
AcDbEntity
  8
Symbol (ISO)
100
AcDbMText
 10
-48.99999999999998
 20
-68.50000000000005
 30
0.0
 40
3.499999940395355
 41
0.0
 46
0.0
 71
     1
 72
     1
  1
Mobilgear SHC XMP 220
  7
Notiztext (DIN)
 73
     1
 44
1.0
  0
MTEXT
  5
25D
330
220
100
AcDbEntity
  8
Symbol (ISO)
100
AcDbMText
 10
-48.99999999999998
 20
-61.50000000000005
 30
0.0
 40
3.499999940395355
 41
0.0
 46
0.0
 71
     1
 72
     1
  1
Mobilgear SHC XMP 680
  7
Notiztext (DIN)
 73
     1
 44
1.0
  0
MTEXT
  5
25E
330
220
100
AcDbEntity
  8
Symbol (ISO)
100
AcDbMText
 10
-48.99999999999998
 20
-54.50000000000003
 30
0.0
 40
3.499999940395355
 41
0.0
 46
0.0
 71
     1
 72
     1
  1
SHC 639
  7
Notiztext (DIN)
 73
     1
 44
1.0
  0
MTEXT
  5
25F
330
220
100
AcDbEntity
  8
Symbol (ISO)
100
AcDbMText
 10
-48.99999999999998
 20
-47.50000000000003
 30
0.0
 40
3.499999940395355
 41
0.0
 46
0.0
 71
     1
 72
     1
  1
Vitaminöl ZH-M
  7
Notiztext (DIN)
 73
     1
 44
1.0
  0
MTEXT
  5
260
330
220
100
AcDbEntity
  8
Symbol (ISO)
100
AcDbMText
 10
-48.99999999999998
 20
-40.50000000000003
 30
0.0
 40
3.499999940395355
 41
0.0
 46
0.0
 71
     1
 72
     1
  1
AWH-M68
  7
Notiztext (DIN)
 73
     1
 44
1.0
  0
ATTDEF
  5
261
102
{ACAD_XDICTIONARY
360
8A3
102
}
330
220
100
AcDbEntity
  8
Symbol (ISO)
100
AcDbText
 10
48.74218633071293
 20
-71.96886229229564
 30
0.0
 40
3.499999940395355
  1

  7
Notiztext (DIN)
 11
48.74218633071293
 21
-68.46886235190028
 31
0.0
100
AcDbAttributeDefinition
280
     0
  3
Mobilgear SHC XMP 220
  2
Mobilgear_SHC_XMP_220
 70
     0
 74
     3
280
     0
  0
ATTDEF
  5
262
102
{ACAD_XDICTIONARY
360
8A6
102
}
330
220
100
AcDbEntity
  8
Symbol (ISO)
100
AcDbText
 10
48.28724555430017
 20
-64.71134335114879
 30
0.0
 40
3.499999940395355
  1

  7
Notiztext (DIN)
 11
48.28724555430017
 21
-61.21134341075343
 31
0.0
100
AcDbAttributeDefinition
280
     0
  3
Mobilgear SHC XMP 680
  2
Mobilgear_SHC_XMP_680
 70
     0
 74
     3
280
     0
  0
ATTDEF
  5
263
102
{ACAD_XDICTIONARY
360
8A9
102
}
330
220
100
AcDbEntity
  8
Symbol (ISO)
100
AcDbText
 10
48.22823664392223
 20
-58.16628411991921
 30
0.0
 40
3.499999940395355
  1

  7
Notiztext (DIN)
 11
48.22823664392223
 21
-54.66628417952385
 31
0.0
100
AcDbAttributeDefinition
280
     0
  3
SHC 639
  2
SHC_639
 70
     0
 74
     3
280
     0
  0
ATTDEF
  5
264
102
{ACAD_XDICTIONARY
360
8AC
102
}
330
220
100
AcDbEntity
  8
Symbol (ISO)
100
AcDbText
 10
48.10913062451696
 20
-51.0858419456516
 30
0.0
 40
3.499999940395355
  1

  7
Notiztext (DIN)
 11
48.10913062451696
 21
-47.58584200525625
 31
0.0
100
AcDbAttributeDefinition
280
     0
  3
Vitaminöl ZH-M
  2
Vitaminöl_ZH-M
 70
     0
 74
     3
280
     0
  0
ATTDEF
  5
265
102
{ACAD_XDICTIONARY
360
8AF
102
}
330
220
100
AcDbEntity
  8
Symbol (ISO)
100
AcDbText
 10
47.99160518675154
 20
-44.22682021382299
 30
0.0
 40
3.499999940395355
  1

  7
Notiztext (DIN)
 11
47.99160518675154
 21
-40.72682027342763
 31
0.0
100
AcDbAttributeDefinition
280
     0
  3
AWH-M68
  2
AWH-M68
 70
     0
 74
     3
280
     0
  0
ATTDEF
  5
266
102
{ACAD_XDICTIONARY
360
8B2
102
}
330
220
100
AcDbEntity
  8
Symbol (ISO)
100
AcDbText
 10
48.09031610359792
 20
-37.0293983861994
 30
0.0
 40
3.499999940395355
  1

  7
Notiztext (DIN)
 11
48.09031610359792
 21
-33.52939844580405
 31
0.0
100
AcDbAttributeDefinition
280
     0
  3
AWH-M32
  2
AWH-M32
 70
     0
 74
     3
280
     0
  0
ATTDEF
  5
267
102
{ACAD_XDICTIONARY
360
8B5
102
}
330
220
100
AcDbEntity
  8
Symbol (ISO)
100
AcDbText
 10
48.48827682435022
 20
-29.84764987125576
 30
0.0
 40
3.499999940395355
  1

  7
Notiztext (DIN)
 11
48.48827682435022
 21
-26.34764993086041
 31
0.0
100
AcDbAttributeDefinition
280
     0
  3
HLP 100
  2
HLP_100
 70
     0
 74
     3
280
     0
  0
ATTDEF
  5
268
102
{ACAD_XDICTIONARY
360
8B8
102
}
330
220
100
AcDbEntity
  8
Symbol (ISO)
100
AcDbText
 10
48.48827682435022
 20
-22.84764987125575
 30
0.0
 40
3.499999940395355
  1

  7
Notiztext (DIN)
 11
48.48827682435022
 21
-19.34764993086039
 31
0.0
100
AcDbAttributeDefinition
280
     0
  3
HLP 32
  2
HLP_32
 70
     0
 74
     3
280
     0
  0
ATTDEF
  5
269
102
{ACAD_XDICTIONARY
360
8BB
102
}
330
220
100
AcDbEntity
  8
Symbol (ISO)
100
AcDbText
 10
48.48827682435018
 20
-15.49043525564339
 30
0.0
 40
3.499999940395355
  1

  7
Notiztext (DIN)
 11
48.48827682435018
 21
-11.99043531524804
 31
0.0
100
AcDbAttributeDefinition
280
     0
  3
Vebis K68
  2
Vebis_K68
 70
     0
 74
     3
280
     0
  0
ATTDEF
  5
26A
102
{ACAD_XDICTIONARY
360
8BE
102
}
330
220
100
AcDbEntity
  8
Symbol (ISO)
100
AcDbText
 10
48.48827682435018
 20
-8.490435255643387
 30
0.0
 40
3.499999940395355
  1

  7
Notiztext (DIN)
 11
48.48827682435018
 21
-4.990435315248031
 31
0.0
100
AcDbAttributeDefinition
280
     0
  3
Vebis K32
  2
Vebis_K32
 70
     0
 74
     3
280
     0
  0
ATTDEF
  5
26B
102
{ACAD_XDICTIONARY
360
8C1
102
}
330
220
100
AcDbEntity
  8
Symbol (ISO)
100
AcDbText
 10
48.48827682435018
 20
-1.490435255643394
 30
0.0
 40
3.499999940395355
  1

  7
Notiztext (DIN)
 11
48.48827682435018
 21
2.009564684751961
 31
0.0
100
AcDbAttributeDefinition
280
     0
  3
Nuto H 68
  2
Nuto_H_68
 70
     0
 74
     3
280
     0
  0
ATTDEF
  5
26C
102
{ACAD_XDICTIONARY
360
8C4
102
}
330
220
100
AcDbEntity
  8
Symbol (ISO)
100
AcDbText
 10
48.48827682435018
 20
5.509564744356616
 30
0.0
 40
3.499999940395355
  1

  7
Notiztext (DIN)
 11
48.48827682435018
 21
9.009564684751971
 31
0.0
100
AcDbAttributeDefinition
280
     0
  3
Univis HVI 26
  2
Univis_HVI_26
 70
     0
 74
     3
280
     0
  0
ATTDEF
  5
26D
102
{ACAD_XDICTIONARY
360
8C7
102
}
330
220
100
AcDbEntity
  8
Symbol (ISO)
100
AcDbText
 10
48.13106219880292
 20
12.15235012874428
 30
0.0
 40
3.499999940395355
  1

  7
Notiztext (DIN)
 11
48.13106219880292
 21
15.65235006913964
 31
0.0
100
AcDbAttributeDefinition
280
     0
  3
ATF Suffix
  2
ATF_Suffix
 70
     0
 74
     3
280
     0
  0
ATTDEF
  5
26E
102
{ACAD_XDICTIONARY
360
8CA
102
}
330
220
100
AcDbEntity
  8
Symbol (ISO)
100
AcDbText
 10
48.13106219880292
 20
19.15235012874429
 30
0.0
 40
3.499999940395355
  1

  7
Notiztext (DIN)
 11
48.13106219880292
 21
22.65235006913965
 31
0.0
100
AcDbAttributeDefinition
280
     0
  3
SHC 224
  2
SHC_224
 70
     0
 74
     3
280
     0
  0
ATTDEF
  5
26F
102
{ACAD_XDICTIONARY
360
8CD
102
}
330
220
100
AcDbEntity
  8
Symbol (ISO)
100
AcDbText
 10
48.13106219880292
 20
26.15235012874429
 30
0.0
 40
3.499999940395355
  1

  7
Notiztext (DIN)
 11
48.13106219880292
 21
29.65235006913964
 31
0.0
100
AcDbAttributeDefinition
280
     0
  3
Nuto 320
  2
Nuto_320
 70
     0
 74
     3
280
     0
  0
ATTDEF
  5
270
102
{ACAD_XDICTIONARY
360
8D0
102
}
330
220
100
AcDbEntity
  8
Symbol (ISO)
100
AcDbText
 10
47.91408360032305
 20
33.29948990687301
 30
0.0
 40
3.499999940395355
  1

  7
Notiztext (DIN)
 11
47.91408360032305
 21
36.79948984726836
 31
0.0
100
AcDbAttributeDefinition
280
     0
  3
Puri 46
  2
Puri_46
 70
     0
 74
     3
280
     0
  0
ATTDEF
  5
271
102
{ACAD_XDICTIONARY
360
8D3
102
}
330
220
100
AcDbEntity
  8
Symbol (ISO)
100
AcDbText
 10
48.2448721495855
 20
40.11416963288027
 30
0.0
 40
3.499999940395355
  1

  7
Notiztext (DIN)
 11
48.2448721495855
 21
43.61416957327563
 31
0.0
100
AcDbAttributeDefinition
280
     0
  3
Bartran
  2
Bartran
 70
     0
 74
     3
280
     0
  0
ATTDEF
  5
272
102
{ACAD_XDICTIONARY
360
8D6
102
}
330
220
100
AcDbEntity
  8
Symbol (ISO)
100
AcDbText
 10
48.41608510706956
 20
46.50231624034169
 30
0.0
 40
3.499999940395355
  1

  7
Notiztext (DIN)
 11
48.41608510706956
 21
50.00231618073705
 31
0.0
100
AcDbAttributeDefinition
280
     0
  3
HLP 220
  2
HLP_220
 70
     0
 74
     3
280
     0
  0
ATTDEF
  5
273
102
{ACAD_XDICTIONARY
360
8D9
102
}
330
220
100
AcDbEntity
  8
Symbol (ISO)
100
AcDbText
 10
48.18775408967403
 20
53.96613599287291
 30
0.0
 40
3.499999940395355
  1

  7
Notiztext (DIN)
 11
48.18775408967403
 21
57.46613593326826
 31
0.0
100
AcDbAttributeDefinition
280
     0
  3
HLP 46
  2
HLP_46
 70
     0
 74
     3
280
     0
  0
ATTDEF
  5
274
102
{ACAD_XDICTIONARY
360
8DC
102
}
330
220
100
AcDbEntity
  8
Symbol (ISO)
100
AcDbText
 10
48.28663276922073
 20
61.06859351727372
 30
0.0
 40
3.499999940395355
  1

  7
Notiztext (DIN)
 11
48.28663276922073
 21
64.56859345766908
 31
0.0
100
AcDbAttributeDefinition
280
     0
  3
SHC 630
  2
SHC_630
 70
     0
 74
     3
280
     0
  0
MTEXT
  5
275
330
220
100
AcDbEntity
  8
Symbol (ISO)
100
AcDbMText
 10
4.50000000000001
 20
64.61119790050003
 30
0.0
 40
3.499999940395355
 41
0.0
 46
0.0
 71
     1
 72
     1
  1
SHC 630
  7
Notiztext (DIN)
 73
     1
 44
1.0
  0
MTEXT
  5
276
330
220
100
AcDbEntity
  8
Symbol (ISO)
100
AcDbMText
 10
4.50000000000001
 20
57.3792880242345
 30
0.0
 40
3.499999940395355
 41
0.0
 46
0.0
 71
     1
 72
     1
  1
BET/STO/OEL/008
  7
Notiztext (DIN)
 73
     1
 44
1.0
  0
MTEXT
  5
277
330
220
100
AcDbEntity
  8
Symbol (ISO)
100
AcDbMText
 10
4.50000000000001
 20
50.96294102882545
 30
0.0
 40
3.499999940395355
 41
0.0
 46
0.0
 71
     1
 72
     1
  1
BET/STO/OEL/001
  7
Notiztext (DIN)
 73
     1
 44
1.0
  0
MTEXT
  5
278
330
220
100
AcDbEntity
  8
Symbol (ISO)
100
AcDbMText
 10
4.50000000000001
 20
43.87066131482932
 30
0.0
 40
3.499999940395355
 41
0.0
 46
0.0
 71
     1
 72
     1
  1
BET/STO/OEL/036
  7
Notiztext (DIN)
 73
     1
 44
1.0
  0
MTEXT
  5
279
330
220
100
AcDbEntity
  8
Symbol (ISO)
100
AcDbMText
 10
4.50000000000001
 20
29.46954920729322
 30
0.0
 40
3.499999940395355
 41
0.0
 46
0.0
 71
     1
 72
     1
  1
BET/STO/OEL/027
  7
Notiztext (DIN)
 73
     1
 44
1.0
  0
MTEXT
  5
27A
330
220
100
AcDbEntity
  8
Symbol (ISO)
100
AcDbMText
 10
4.50000000000001
 20
16.19038459020862
 30
0.0
 40
3.499999940395355
 41
0.0
 46
0.0
 71
     1
 72
     1
  1
BET/STO/OEL/002
  7
Notiztext (DIN)
 73
     1
 44
1.0
  0
MTEXT
  5
27B
330
220
100
AcDbEntity
  8
Symbol (ISO)
100
AcDbMText
 10
4.50000000000001
 20
8.913558748917509
 30
0.0
 40
3.499999940395355
 41
0.0
 46
0.0
 71
     1
 72
     1
  1
BET/STO/OEL/003
  7
Notiztext (DIN)
 73
     1
 44
1.0
  0
MTEXT
  5
27C
330
220
100
AcDbEntity
  8
Symbol (ISO)
100
AcDbMText
 10
4.50000000000001
 20
-5.501680013019161
 30
0.0
 40
3.499999940395355
 41
0.0
 46
0.0
 71
     1
 72
     1
  1
BET/STO/OEL/011
  7
Notiztext (DIN)
 73
     1
 44
1.0
  0
MTEXT
  5
27D
330
220
100
AcDbEntity
  8
Symbol (ISO)
100
AcDbMText
 10
4.50000000000001
 20
-12.57192031470969
 30
0.0
 40
3.499999940395355
 41
0.0
 46
0.0
 71
     1
 72
     1
  1
BET/STO/OEL/013
  7
Notiztext (DIN)
 73
     1
 44
1.0
  0
MTEXT
  5
27E
330
220
100
AcDbEntity
  8
Symbol (ISO)
100
AcDbMText
 10
4.50000000000001
 20
-19.50219473614664
 30
0.0
 40
3.499999940395355
 41
0.0
 46
0.0
 71
     1
 72
     1
  1
BET/STO/OEL/016
  7
Notiztext (DIN)
 73
     1
 44
1.0
  0
MTEXT
  5
27F
330
220
100
AcDbEntity
  8
Symbol (ISO)
100
AcDbMText
 10
4.50000000000001
 20
-26.14703418899674
 30
0.0
 40
3.499999940395355
 41
0.0
 46
0.0
 71
     1
 72
     1
  1
BET/STO/OEL/017
  7
Notiztext (DIN)
 73
     1
 44
1.0
  0
MTEXT
  5
280
330
220
100
AcDbEntity
  8
Symbol (ISO)
100
AcDbMText
 10
4.50000000000001
 20
36.18445648357067
 30
0.0
 40
3.499999940395355
 41
0.0
 46
0.0
 71
     1
 72
     1
  1
BET/STO/OEL/028
  7
Notiztext (DIN)
 73
     1
 44
1.0
  0
MTEXT
  5
281
330
220
100
AcDbEntity
  8
Symbol (ISO)
100
AcDbMText
 10
4.50000000000001
 20
-33.47170773254664
 30
0.0
 40
3.499999940395355
 41
0.0
 46
0.0
 71
     1
 72
     1
  1
BET/STO/OEL/032
  7
Notiztext (DIN)
 73
     1
 44
1.0
  0
MTEXT
  5
282
330
220
100
AcDbEntity
  8
Symbol (ISO)
100
AcDbMText
 10
4.50000000000001
 20
-40.76778473965177
 30
0.0
 40
3.499999940395355
 41
0.0
 46
0.0
 71
     1
 72
     1
  1
BET/STO/OEL/033
  7
Notiztext (DIN)
 73
     1
 44
1.0
  0
MTEXT
  5
283
330
220
100
AcDbEntity
  8
Symbol (ISO)
100
AcDbMText
 10
4.50000000000001
 20
-46.91108283767896
 30
0.0
 40
3.499999940395355
 41
0.0
 46
0.0
 71
     1
 72
     1
  1
BET/STO/OEL/034
  7
Notiztext (DIN)
 73
     1
 44
1.0
  0
MTEXT
  5
284
330
220
100
AcDbEntity
  8
Symbol (ISO)
100
AcDbMText
 10
4.50000000000001
 20
23.02948375520474
 30
0.0
 40
3.499999940395355
 41
0.0
 46
0.0
 71
     1
 72
     1
  1
BET/STO/OEL/035
  7
Notiztext (DIN)
 73
     1
 44
1.0
  0
MTEXT
  5
285
330
220
100
AcDbEntity
  8
Symbol (ISO)
100
AcDbMText
 10
4.50000000000001
 20
-53.8059161125846
 30
0.0
 40
3.499999940395355
 41
0.0
 46
0.0
 71
     1
 72
     1
  1
BET/STO/OEL/039
  7
Notiztext (DIN)
 73
     1
 44
1.0
  0
MTEXT
  5
286
330
220
100
AcDbEntity
  8
Symbol (ISO)
100
AcDbMText
 10
4.50000000000001
 20
-61.30373390369237
 30
0.0
 40
3.499999940395355
 41
0.0
 46
0.0
 71
     1
 72
     1
  1
BET/STO/OEL/039
  7
Notiztext (DIN)
 73
     1
 44
1.0
  0
MTEXT
  5
287
330
220
100
AcDbEntity
  8
Symbol (ISO)
100
AcDbMText
 10
4.50000000000001
 20
-68.84448445146768
 30
0.0
 40
3.499999940395355
 41
0.0
 46
0.0
 71
     1
 72
     1
  1
BET/STO/OEL/042
  7
Notiztext (DIN)
 73
     1
 44
1.0
  0
MTEXT
  5
288
330
220
100
AcDbEntity
  8
Symbol (ISO)
100
AcDbMText
 10
4.50000000000001
 20
1.826762230343437
 30
0.0
 40
3.499999940395355
 41
0.0
 46
0.0
 71
     1
 72
     1
  1
BET/STO/OEL/004
  7
Notiztext (DIN)
 73
     1
 44
1.0
  0
ENDBLK
  5
222
330
220
100
AcDbEntity
  8
0
100
AcDbBlockEnd
  0
BLOCK
  5
28A
330
289
100
AcDbEntity
  8
0
100
AcDbBlockBegin
  2
Zeichnungsnummer eingraviert
 70
     0
 10
0.0
 20
0.0
 30
0.0
  3
Zeichnungsnummer eingraviert
  1

  0
LINE
  5
28C
330
289
100
AcDbEntity
  8
Skizziergeometrie (ISO)
100
AcDbLine
 10
-50.0
 20
13.49399274657987
 30
0.0
 11
0.0
 21
13.49399274657987
 31
0.0
  0
LINE
  5
28D
330
289
100
AcDbEntity
  8
Skizziergeometrie (ISO)
100
AcDbLine
 10
0.0
 20
13.49399274657987
 30
0.0
 11
0.0
 21
0.0
 31
0.0
  0
LINE
  5
28E
330
289
100
AcDbEntity
  8
Skizziergeometrie (ISO)
100
AcDbLine
 10
0.0
 20
0.0
 30
0.0
 11
-50.0
 21
0.0
 31
0.0
  0
LINE
  5
28F
330
289
100
AcDbEntity
  8
Skizziergeometrie (ISO)
100
AcDbLine
 10
-50.0
 20
0.0
 30
0.0
 11
-50.0
 21
13.49399274657987
 31
0.0
  0
MTEXT
  5
290
330
289
100
AcDbEntity
  8
Symbol (ISO)
100
AcDbMText
 10
-24.99999999999996
 20
3.735591916700968
 30
0.0
 40
3.499999940395355
 41
50.00000000000007
 46
0.0
 71
     5
 72
     1
  1
Zeichnungsnummer \Pgraviert/-gelasert\P 
  7
Notiztext (DIN)
 73
     2
 44
1.068348050117492
  0
ENDBLK
  5
28B
330
289
100
AcDbEntity
  8
0
100
AcDbBlockEnd
  0
BLOCK
  5
292
330
291
100
AcDbEntity
  8
0
100
AcDbBlockBegin
  2
Zeichnungsparameter
 70
     0
 10
0.0
 20
0.0
 30
0.0
  3
Zeichnungsparameter
  1

  0
LINE
  5
294
330
291
100
AcDbEntity
  8
Skizziergeometrie (ISO)
100
AcDbLine
 10
-35.0
 20
46.98644513033116
 30
0.0
 11
35.00000000000002
 21
46.98644513033055
 31
0.0
  0
LINE
  5
295
330
291
100
AcDbEntity
  8
Skizziergeometrie (ISO)
100
AcDbLine
 10
35.00000000000002
 20
41.98644513033055
 30
0.0
 11
-35.0
 21
41.98644513033116
 31
0.0
  0
LINE
  5
296
330
291
100
AcDbEntity
  8
Skizziergeometrie (ISO)
100
AcDbLine
 10
-35.0
 20
41.98644513033116
 30
0.0
 11
-35.0
 21
46.98644513033116
 31
0.0
  0
LINE
  5
297
330
291
100
AcDbEntity
  8
Skizziergeometrie (ISO)
100
AcDbLine
 10
-35.0
 20
41.98644513033116
 30
0.0
 11
35.00000000000002
 21
41.98644513033055
 31
0.0
  0
LINE
  5
298
330
291
100
AcDbEntity
  8
Skizziergeometrie (ISO)
100
AcDbLine
 10
35.00000000000002
 20
36.98644513033056
 30
0.0
 11
-35.0
 21
36.98644513033116
 31
0.0
  0
LINE
  5
299
330
291
100
AcDbEntity
  8
Skizziergeometrie (ISO)
100
AcDbLine
 10
-35.0
 20
36.98644513033116
 30
0.0
 11
-35.0
 21
41.98644513033116
 31
0.0
  0
LINE
  5
29A
330
291
100
AcDbEntity
  8
Skizziergeometrie (ISO)
100
AcDbLine
 10
35.00000000000002
 20
31.98644513033056
 30
0.0
 11
-35.0
 21
31.98644513033116
 31
0.0
  0
LINE
  5
29B
330
291
100
AcDbEntity
  8
Skizziergeometrie (ISO)
100
AcDbLine
 10
-35.0
 20
31.98644513033116
 30
0.0
 11
-35.0
 21
36.98644513033116
 31
0.0
  0
LINE
  5
29C
330
291
100
AcDbEntity
  8
Skizziergeometrie (ISO)
100
AcDbLine
 10
-35.0
 20
31.98644513033116
 30
0.0
 11
35.00000000000002
 21
31.98644513033056
 31
0.0
  0
LINE
  5
29D
330
291
100
AcDbEntity
  8
Skizziergeometrie (ISO)
100
AcDbLine
 10
-35.0
 20
26.98644513033042
 30
0.0
 11
35.00000000000002
 21
26.98644513033054
 31
0.0
  0
LINE
  5
29E
330
291
100
AcDbEntity
  8
Skizziergeometrie (ISO)
100
AcDbLine
 10
-35.0
 20
26.98644513033042
 30
0.0
 11
-35.0
 21
31.98644513033116
 31
0.0
  0
LINE
  5
29F
330
291
100
AcDbEntity
  8
Skizziergeometrie (ISO)
100
AcDbLine
 10
-35.00000000000001
 20
6.986445130330345
 30
0.0
 11
35.00000000000002
 21
6.98644513033054
 31
0.0
  0
LINE
  5
2A0
330
291
100
AcDbEntity
  8
Skizziergeometrie (ISO)
100
AcDbLine
 10
-35.00000000000001
 20
6.986445130330345
 30
0.0
 11
-35.0
 21
11.98644513033036
 31
0.0
  0
LINE
  5
2A1
330
291
100
AcDbEntity
  8
Skizziergeometrie (ISO)
100
AcDbLine
 10
-35.0
 20
11.98644513033036
 30
0.0
 11
35.00000000000002
 21
11.98644513033054
 31
0.0
  0
LINE
  5
2A2
330
291
100
AcDbEntity
  8
Skizziergeometrie (ISO)
100
AcDbLine
 10
-35.0
 20
11.98644513033036
 30
0.0
 11
-35.0
 21
16.98644513033038
 31
0.0
  0
LINE
  5
2A3
330
291
100
AcDbEntity
  8
Skizziergeometrie (ISO)
100
AcDbLine
 10
-35.0
 20
16.98644513033038
 30
0.0
 11
35.00000000000002
 21
16.98644513033054
 31
0.0
  0
LINE
  5
2A4
330
291
100
AcDbEntity
  8
Skizziergeometrie (ISO)
100
AcDbLine
 10
-35.0
 20
16.98644513033038
 30
0.0
 11
-35.0
 21
21.9864451303304
 31
0.0
  0
LINE
  5
2A5
330
291
100
AcDbEntity
  8
Skizziergeometrie (ISO)
100
AcDbLine
 10
-35.0
 20
21.9864451303304
 30
0.0
 11
35.00000000000002
 21
21.98644513033054
 31
0.0
  0
LINE
  5
2A6
330
291
100
AcDbEntity
  8
Skizziergeometrie (ISO)
100
AcDbLine
 10
-35.0
 20
21.9864451303304
 30
0.0
 11
-35.0
 21
26.98644513033042
 31
0.0
  0
LINE
  5
2A7
330
291
100
AcDbEntity
  8
Skizziergeometrie (ISO)
100
AcDbLine
 10
-35.00000000000001
 20
-13.01355486966972
 30
0.0
 11
35.0
 21
-13.01355486966946
 31
0.0
  0
LINE
  5
2A8
330
291
100
AcDbEntity
  8
Skizziergeometrie (ISO)
100
AcDbLine
 10
-35.0
 20
-8.013554869669707
 30
0.0
 11
35.00000000000002
 21
-8.013554869669459
 31
0.0
  0
LINE
  5
2A9
330
291
100
AcDbEntity
  8
Skizziergeometrie (ISO)
100
AcDbLine
 10
-35.0
 20
-3.01355486966969
 30
0.0
 11
35.00000000000002
 21
-3.013554869669459
 31
0.0
  0
LINE
  5
2AA
330
291
100
AcDbEntity
  8
Skizziergeometrie (ISO)
100
AcDbLine
 10
-35.0
 20
1.986445130330327
 30
0.0
 11
35.00000000000002
 21
1.98644513033054
 31
0.0
  0
LINE
  5
2AB
330
291
100
AcDbEntity
  8
Skizziergeometrie (ISO)
100
AcDbLine
 10
-35.00000000000001
 20
6.986445130330345
 30
0.0
 11
35.00000000000002
 21
6.98644513033054
 31
0.0
  0
LINE
  5
2AC
330
291
100
AcDbEntity
  8
Skizziergeometrie (ISO)
100
AcDbLine
 10
-35.00000000000001
 20
-13.01355486966972
 30
0.0
 11
-35.00000000000001
 21
36.54266314779697
 31
0.0
  0
LINE
  5
2AD
330
291
100
AcDbEntity
  8
Skizziergeometrie (ISO)
100
AcDbLine
 10
-35.00000000000001
 20
6.986445130330345
 30
0.0
 11
-35.00000000000001
 21
-13.01355486966972
 31
0.0
  0
LINE
  5
2AE
330
291
100
AcDbEntity
  8
Skizziergeometrie (ISO)
100
AcDbLine
 10
-35.0
 20
1.986445130330327
 30
0.0
 11
-35.00000000000001
 21
6.986445130330345
 31
0.0
  0
LINE
  5
2AF
330
291
100
AcDbEntity
  8
Skizziergeometrie (ISO)
100
AcDbLine
 10
-35.0
 20
-8.013554869669707
 30
0.0
 11
-35.0
 21
-3.01355486966969
 31
0.0
  0
LINE
  5
2B0
330
291
100
AcDbEntity
  8
Skizziergeometrie (ISO)
100
AcDbLine
 10
-35.0
 20
-3.01355486966969
 30
0.0
 11
-35.0
 21
1.986445130330327
 31
0.0
  0
LINE
  5
2B1
330
291
100
AcDbEntity
  8
Skizziergeometrie (ISO)
100
AcDbLine
 10
35.00000000000002
 20
46.98644513033055
 30
0.0
 11
35.0
 21
-13.01355486966946
 31
0.0
  0
LINE
  5
2B2
330
291
100
AcDbEntity
  8
Skizziergeometrie (ISO)
100
AcDbLine
 10
-35.00000000000001
 20
-13.01355486966972
 30
0.0
 11
-35.00000000000001
 21
-46.98644513033058
 31
0.0
  0
LINE
  5
2B3
330
291
100
AcDbEntity
  8
Skizziergeometrie (ISO)
100
AcDbLine
 10
35.00000000000002
 20
-46.98644513033058
 30
0.0
 11
35.0
 21
-13.01355486966946
 31
0.0
  0
LINE
  5
2B4
330
291
100
AcDbEntity
  8
Skizziergeometrie (ISO)
100
AcDbLine
 10
-35.00000000000001
 20
-18.01355486966972
 30
0.0
 11
35.00000000000002
 21
-18.01355486966944
 31
0.0
  0
LINE
  5
2B5
330
291
100
AcDbEntity
  8
Skizziergeometrie (ISO)
100
AcDbLine
 10
-35.00000000000001
 20
-23.01355486966974
 30
0.0
 11
35.00000000000002
 21
-23.01355486966944
 31
0.0
  0
LINE
  5
2B6
330
291
100
AcDbEntity
  8
Skizziergeometrie (ISO)
100
AcDbLine
 10
-35.00000000000001
 20
-28.01355486966976
 30
0.0
 11
35.00000000000002
 21
-28.01355486966944
 31
0.0
  0
LINE
  5
2B7
330
291
100
AcDbEntity
  8
Skizziergeometrie (ISO)
100
AcDbLine
 10
-35.00000000000001
 20
-33.01355486966978
 30
0.0
 11
35.00000000000002
 21
-33.01355486966944
 31
0.0
  0
LINE
  5
2B8
330
291
100
AcDbEntity
  8
Skizziergeometrie (ISO)
100
AcDbLine
 10
-35.00000000000001
 20
-38.0135548696698
 30
0.0
 11
35.00000000000002
 21
-38.01355486966944
 31
0.0
  0
LINE
  5
2B9
330
291
100
AcDbEntity
  8
Skizziergeometrie (ISO)
100
AcDbLine
 10
-35.00000000000001
 20
-43.01355486966983
 30
0.0
 11
35.00000000000002
 21
-43.01355486966944
 31
0.0
  0
LINE
  5
2BA
330
291
100
AcDbEntity
  8
Skizziergeometrie (ISO)
100
AcDbLine
 10
-35.00000000000001
 20
-46.98644513033058
 30
0.0
 11
35.00000000000002
 21
-46.98644513033118
 31
0.0
  0
MTEXT
  5
2BB
330
291
100
AcDbEntity
  8
Symbol (ISO)
100
AcDbMText
 10
-33.0
 20
40.48644513033057
 30
0.0
 40
2.000000029802322
 41
0.0
 46
0.0
 71
     1
 72
     1
  1
\fISOCPEUR|b0|i0;\H2.0000;A = Gesamtlänge
  7
Notiztext (DIN)
 73
     1
 44
1.0
  0
MTEXT
  5
2BC
330
291
100
AcDbEntity
  8
Symbol (ISO)
100
AcDbMText
 10
-33.0
 20
35.48644513033057
 30
0.0
 40
2.000000029802322
 41
0.0
 46
0.0
 71
     1
 72
     1
  1
\fISOCPEUR|b0|i0;\H2.0000;C = Zylinderlänge
  7
Notiztext (DIN)
 73
     1
 44
1.0
  0
MTEXT
  5
2BD
330
291
100
AcDbEntity
  8
Symbol (ISO)
100
AcDbMText
 10
-33.0
 20
30.48644513033055
 30
0.0
 40
2.000000029802322
 41
0.0
 46
0.0
 71
     1
 72
     1
  1
\fISOCPEUR|b0|i0;\H2.0000;CR = Stirnmaß (FUE<>BST)
  7
Notiztext (DIN)
 73
     1
 44
1.0
  0
MTEXT
  5
2BE
330
291
100
AcDbEntity
  8
Symbol (ISO)
100
AcDbMText
 10
-33.0
 20
25.48644513033054
 30
0.0
 40
2.000000029802322
 41
0.0
 46
0.0
 71
     1
 72
     1
  1
\fISOCPEUR|b0|i0;\H2.0000;D = sonstige Länge
  7
Notiztext (DIN)
 73
     1
 44
1.0
  0
MTEXT
  5
2BF
330
291
100
AcDbEntity
  8
Symbol (ISO)
100
AcDbMText
 10
-33.0
 20
5.486445130330537
 30
0.0
 40
2.000000029802322
 41
0.0
 46
0.0
 71
     1
 72
     1
  1
\fISOCPEUR|b0|i0;\H2.0000;F = sonstige Länge
  7
Notiztext (DIN)
 73
     1
 44
1.0
  0
MTEXT
  5
2C0
330
291
100
AcDbEntity
  8
Symbol (ISO)
100
AcDbMText
 10
-33.0
 20
15.48644513033053
 30
0.0
 40
2.000000029802322
 41
0.0
 46
0.0
 71
     1
 72
     1
  1
\fISOCPEUR|b0|i0;\H2.0000;dROH = Durchmesser Rohr
  7
Notiztext (DIN)
 73
     1
 44
1.0
  0
MTEXT
  5
2C1
330
291
100
AcDbEntity
  8
Symbol (ISO)
100
AcDbMText
 10
-33.0
 20
10.48644513033053
 30
0.0
 40
2.000000029802322
 41
0.0
 46
0.0
 71
     1
 72
     1
  1
\fISOCPEUR|b0|i0;\H2.0000;E = kürzeste Gesamtlänge eingefahren
  7
Notiztext (DIN)
 73
     1
 44
1.0
  0
MTEXT
  5
2C2
330
291
100
AcDbEntity
  8
Symbol (ISO)
100
AcDbMText
 10
-33.0
 20
20.48644513033054
 30
0.0
 40
2.000000029802322
 41
0.0
 46
0.0
 71
     1
 72
     1
  1
\fISOCPEUR|b0|i0;\H2.0000;dGWZ = Durchmesser Gewindezapfen
  7
Notiztext (DIN)
 73
     1
 44
1.0
  0
MTEXT
  5
2C3
330
291
100
AcDbEntity
  8
Symbol (ISO)
100
AcDbMText
 10
-33.0
 20
45.56018892946163
 30
0.0
 40
2.5
 41
0.0
 46
0.0
 71
     1
 72
     1
  1
\fISOCPEUR|b0|i0;\H2.5000;Zeichnungsparameter
  7
Notiztext (DIN)
 73
     1
 44
1.0
  0
MTEXT
  5
2C4
330
291
100
AcDbEntity
  8
Symbol (ISO)
100
AcDbMText
 10
-32.99999999999999
 20
-29.51355486966944
 30
0.0
 40
2.000000029802322
 41
0.0
 46
0.0
 71
     1
 72
     1
  1
\fISOCPEUR|b0|i0;\H2.0000;lGWZ = länge Gewindezapfen
  7
Notiztext (DIN)
 73
     1
 44
1.0
  0
MTEXT
  5
2C5
330
291
100
AcDbEntity
  8
Symbol (ISO)
100
AcDbMText
 10
-32.99999999999999
 20
-24.51355486966944
 30
0.0
 40
2.000000029802322
 41
0.0
 46
0.0
 71
     1
 72
     1
  1
\fISOCPEUR|b0|i0;\H2.0000;L = Gesamtlänge ohne Gewindeanschlüsse
  7
Notiztext (DIN)
 73
     1
 44
1.0
  0
MTEXT
  5
2C6
330
291
100
AcDbEntity
  8
Symbol (ISO)
100
AcDbMText
 10
-32.99999999999999
 20
-19.51355486966944
 30
0.0
 40
2.000000029802322
 41
0.0
 46
0.0
 71
     1
 72
     1
  1
\fISOCPEUR|b0|i0;\H2.0000;I = sonstige Länge
  7
Notiztext (DIN)
 73
     1
 44
1.0
  0
MTEXT
  5
2C7
330
291
100
AcDbEntity
  8
Symbol (ISO)
100
AcDbMText
 10
-32.99999999999999
 20
-14.51355486966946
 30
0.0
 40
2.000000029802322
 41
0.0
 46
0.0
 71
     1
 72
     1
  1
\fISOCPEUR|b0|i0;\H2.0000;H = Hub
  7
Notiztext (DIN)
 73
     1
 44
1.0
  0
MTEXT
  5
2C8
330
291
100
AcDbEntity
  8
Symbol (ISO)
100
AcDbMText
 10
-33.0
 20
-9.513554869669462
 30
0.0
 40
2.000000029802322
 41
0.0
 46
0.0
 71
     1
 72
     1
  1
\fISOCPEUR|b0|i0;\H2.0000;GLe = Gesamtlänge mit Anschlussteilen eingefahren
  7
Notiztext (DIN)
 73
     1
 44
1.0
  0
MTEXT
  5
2C9
330
291
100
AcDbEntity
  8
Symbol (ISO)
100
AcDbMText
 10
-33.0
 20
-4.513554869669462
 30
0.0
 40
2.000000029802322
 41
0.0
 46
0.0
 71
     1
 72
     1
  1
\fISOCPEUR|b0|i0;\H2.0000;GLa = Gesamtlänge mit Anschlussteilen ausgefahren
  7
Notiztext (DIN)
 73
     1
 44
1.0
  0
MTEXT
  5
2CA
330
291
100
AcDbEntity
  8
Symbol (ISO)
100
AcDbMText
 10
-33.0
 20
0.4864451303305373
 30
0.0
 40
2.000000029802322
 41
0.0
 46
0.0
 71
     1
 72
     1
  1
\fISOCPEUR|b0|i0;\H2.0000;G = Gesamtlänge Kolbenstange
  7
Notiztext (DIN)
 73
     1
 44
1.0
  0
MTEXT
  5
2CB
330
291
100
AcDbEntity
  8
Symbol (ISO)
100
AcDbMText
 10
-32.99999999999999
 20
-39.51355486966945
 30
0.0
 40
2.000000029802322
 41
0.0
 46
0.0
 71
     1
 72
     1
  1
\fISOCPEUR|b0|i0;\H2.0000;S = Sickenmaß
  7
Notiztext (DIN)
 73
     1
 44
1.0
  0
MTEXT
  5
2CC
330
291
100
AcDbEntity
  8
Symbol (ISO)
100
AcDbMText
 10
-32.99999999999999
 20
-34.51355486966945
 30
0.0
 40
2.000000029802322
 41
0.0
 46
0.0
 71
     1
 72
     1
  1
\fISOCPEUR|b0|i0;\H2.0000;lANS = länge Anschluss
  7
Notiztext (DIN)
 73
     1
 44
1.0
  0
MTEXT
  5
2CD
330
291
100
AcDbEntity
  8
Symbol (ISO)
100
AcDbMText
 10
-33.04242336774485
 20
-44.00888391176137
 30
0.0
 40
2.000000029802322
 41
0.0
 46
0.0
 71
     1
 72
     1
  1
\fISOCPEUR|b0|i0;\H2.0000;X = Konstante über Rohrverlängerung/Verkürzung
  7
Notiztext (DIN)
 73
     1
 44
1.0
  0
ENDBLK
  5
293
330
291
100
AcDbEntity
  8
0
100
AcDbBlockEnd
  0
BLOCK
  5
2CF
330
2CE
100
AcDbEntity
  8
0
100
AcDbBlockBegin
  2
_Closed
 70
     0
 10
0.0
 20
0.0
 30
0.0
  3
_Closed
  1

  0
LINE
  5
2D1
330
2CE
100
AcDbEntity
  8
0
  6
ByBlock
 62
     7
370
    25
100
AcDbLine
 10
-0.05
 20
0.0166666666666667
 30
0.0
 11
0.05
 21
0.0
 31
0.0
  0
LINE
  5
2D2
330
2CE
100
AcDbEntity
  8
0
  6
ByBlock
 62
     7
370
    25
100
AcDbLine
 10
0.05
 20
0.0
 30
0.0
 11
-0.05
 21
-0.0166666666666667
 31
0.0
  0
LINE
  5
2D3
330
2CE
100
AcDbEntity
  8
0
  6
ByBlock
 62
     7
370
    25
100
AcDbLine
 10
-0.05
 20
0.0166666666666667
 30
0.0
 11
-0.05
 21
-0.0166666666666667
 31
0.0
  0
LINE
  5
2D4
330
2CE
100
AcDbEntity
  8
0
  6
ByBlock
 62
     7
370
    25
100
AcDbLine
 10
0.05
 20
0.0
 30
0.0
 11
-0.05
 21
0.0
 31
0.0
  0
ENDBLK
  5
2D0
330
2CE
100
AcDbEntity
  8
0
100
AcDbBlockEnd
  0
BLOCK
  5
302
330
301
100
AcDbEntity
  8
0
100
AcDbBlockBegin
  2
*D27
 70
     1
 10
0.0
 20
0.0
 30
0.0
  3
*D27
  1

  0
LINE
  5
3E4
330
301
100
AcDbEntity
  8
Bemaßung (ISO)
440
 16777216
100
AcDbLine
 10
308.8584888504002
 20
172.0919282806946
 30
0.0
 11
308.8584888504002
 21
185.9328001001021
 31
0.0
  0
LINE
  5
3E5
330
301
100
AcDbEntity
  8
Bemaßung (ISO)
440
 16777216
100
AcDbLine
 10
318.8584888504002
 20
168.3919282806946
 30
0.0
 11
318.8584888504002
 21
185.9328001001021
 31
0.0
  0
LINE
  5
3E6
330
301
100
AcDbEntity
  8
Bemaßung (ISO)
440
 16777216
100
AcDbLine
 10
311.3584888504002
 20
184.9328001001021
 30
0.0
 11
316.3584888504001
 21
184.9328001001021
 31
0.0
  0
SOLID
  5
3E7
330
301
100
AcDbEntity
  8
Bemaßung (ISO)
440
 16777216
100
AcDbTrace
 10
311.3584888504002
 20
185.3494667667687
 30
0.0
 11
311.3584888504002
 21
184.5161334334354
 31
0.0
 12
308.8584888504002
 22
184.9328001001021
 32
0.0
 13
308.8584888504002
 23
184.9328001001021
 33
0.0
  0
SOLID
  5
3E8
330
301
100
AcDbEntity
  8
Bemaßung (ISO)
440
 16777216
100
AcDbTrace
 10
316.3584888504001
 20
185.3494667667687
 30
0.0
 11
316.3584888504001
 21
184.5161334334354
 31
0.0
 12
318.8584888504002
 22
184.9328001001021
 32
0.0
 13
318.8584888504002
 23
184.9328001001021
 33
0.0
  0
MTEXT
  5
3E9
330
301
100
AcDbEntity
  8
Bemaßung (ISO)
440
 16777216
100
AcDbMText
 10
312.1084889058139
 20
189.2328001001021
 30
0.0
 40
3.5
 41
0.0
 46
0.0
 71
     1
 72
     1
  1
\A1;{10}
  7
Notiztext (DIN)
 73
     1
 44
1.0
  0
POINT
  5
3EA
330
301
100
AcDbEntity
  8
Defpoints
 62
     0
440
 16777216
100
AcDbPoint
 10
308.8584888504002
 20
171.2919282806946
 30
0.0
  0
POINT
  5
3EB
330
301
100
AcDbEntity
  8
Defpoints
 62
     0
440
 16777216
100
AcDbPoint
 10
318.8584888504002
 20
167.5919282806946
 30
0.0
  0
POINT
  5
3EC
330
301
100
AcDbEntity
  8
Defpoints
 62
     0
440
 16777216
100
AcDbPoint
 10
318.8584888504002
 20
184.9328001001021
 30
0.0
  0
ENDBLK
  5
303
330
301
100
AcDbEntity
  8
0
100
AcDbBlockEnd
  0
BLOCK
  5
3EF
330
3EE
100
AcDbEntity
  8
0
100
AcDbBlockBegin
  2
*D28
 70
     1
 10
0.0
 20
0.0
 30
0.0
  3
*D28
  1

  0
LINE
  5
4D3
330
3EE
100
AcDbEntity
  8
Bemaßung (ISO)
440
 16777216
100
AcDbLine
 10
153.8584888504001
 20
168.3919282806945
 30
0.0
 11
130.2584888504001
 21
168.3919282806945
 31
0.0
  0
LINE
  5
4D4
330
3EE
100
AcDbEntity
  8
Bemaßung (ISO)
440
 16777216
100
AcDbLine
 10
153.8584888504001
 20
160.3919282806946
 30
0.0
 11
130.2584888504001
 21
160.3919282806946
 31
0.0
  0
LINE
  5
4D5
330
3EE
100
AcDbEntity
  8
Bemaßung (ISO)
440
 16777216
100
AcDbLine
 10
131.2584888504001
 20
165.8919282806945
 30
0.0
 11
131.2584888504001
 21
162.8919282806945
 31
0.0
  0
SOLID
  5
4D6
330
3EE
100
AcDbEntity
  8
Bemaßung (ISO)
440
 16777216
100
AcDbTrace
 10
130.8418221837335
 20
165.8919282806945
 30
0.0
 11
131.6751555170668
 21
165.8919282806945
 31
0.0
 12
131.2584888504001
 22
168.3919282806945
 32
0.0
 13
131.2584888504001
 23
168.3919282806945
 33
0.0
  0
SOLID
  5
4D7
330
3EE
100
AcDbEntity
  8
Bemaßung (ISO)
440
 16777216
100
AcDbTrace
 10
130.8418221837335
 20
162.8919282806945
 30
0.0
 11
131.6751555170668
 21
162.8919282806945
 31
0.0
 12
131.2584888504001
 22
160.3919282806946
 32
0.0
 13
131.2584888504001
 23
160.3919282806946
 33
0.0
  0
MTEXT
  5
4D8
330
3EE
100
AcDbEntity
  8
Bemaßung (ISO)
440
 16777216
100
AcDbMText
 10
126.9584888504001
 20
161.9419283582737
 30
0.0
 40
3.5
 41
0.0
 46
0.0
 71
     1
 72
     1
  1
\A1;{{M}8}
  7
Notiztext (DIN)
 11
0.0000000000000001
 21
1.0
 31
0.0
 73
     1
 44
1.0
  0
POINT
  5
4D9
330
3EE
100
AcDbEntity
  8
Defpoints
 62
     0
440
 16777216
100
AcDbPoint
 10
154.6584888504002
 20
168.3919282806945
 30
0.0
  0
POINT
  5
4DA
330
3EE
100
AcDbEntity
  8
Defpoints
 62
     0
440
 16777216
100
AcDbPoint
 10
154.6584888504002
 20
160.3919282806946
 30
0.0
  0
POINT
  5
4DB
330
3EE
100
AcDbEntity
  8
Defpoints
 62
     0
440
 16777216
100
AcDbPoint
 10
131.2584888504001
 20
160.3919282806946
 30
0.0
  0
ENDBLK
  5
3F0
330
3EE
100
AcDbEntity
  8
0
100
AcDbBlockEnd
  0
BLOCK
  5
4DE
330
4DD
100
AcDbEntity
  8
0
100
AcDbBlockBegin
  2
*D29
 70
     1
 10
0.0
 20
0.0
 30
0.0
  3
*D29
  1

  0
LINE
  5
5C2
330
4DD
100
AcDbEntity
  8
Bemaßung (ISO)
440
 16777216
100
AcDbLine
 10
318.8584888504002
 20
160.3919282806946
 30
0.0
 11
336.4584888504002
 21
160.3919282806946
 31
0.0
  0
LINE
  5
5C3
330
4DD
100
AcDbEntity
  8
Bemaßung (ISO)
440
 16777216
100
AcDbLine
 10
318.8584888504002
 20
168.3919282806946
 30
0.0
 11
336.4584888504002
 21
168.3919282806946
 31
0.0
  0
LINE
  5
5C4
330
4DD
100
AcDbEntity
  8
Bemaßung (ISO)
440
 16777216
100
AcDbLine
 10
335.4584888504002
 20
162.8919282806946
 30
0.0
 11
335.4584888504002
 21
165.8919282806945
 31
0.0
  0
SOLID
  5
5C5
330
4DD
100
AcDbEntity
  8
Bemaßung (ISO)
440
 16777216
100
AcDbTrace
 10
335.0418221837335
 20
162.8919282806946
 30
0.0
 11
335.8751555170669
 21
162.8919282806946
 31
0.0
 12
335.4584888504002
 22
160.3919282806946
 32
0.0
 13
335.4584888504002
 23
160.3919282806946
 33
0.0
  0
SOLID
  5
5C6
330
4DD
100
AcDbEntity
  8
Bemaßung (ISO)
440
 16777216
100
AcDbTrace
 10
335.0418221837335
 20
165.8919282806945
 30
0.0
 11
335.8751555170669
 21
165.8919282806945
 31
0.0
 12
335.4584888504002
 22
168.3919282806946
 32
0.0
 13
335.4584888504002
 23
168.3919282806946
 33
0.0
  0
MTEXT
  5
5C7
330
4DD
100
AcDbEntity
  8
Bemaßung (ISO)
440
 16777216
100
AcDbMText
 10
331.1584888504001
 20
161.9419283582738
 30
0.0
 40
3.5
 41
0.0
 46
0.0
 71
     1
 72
     1
  1
\A1;{{M}8}
  7
Notiztext (DIN)
 11
0.0000000000000001
 21
1.0
 31
0.0
 73
     1
 44
1.0
  0
POINT
  5
5C8
330
4DD
100
AcDbEntity
  8
Defpoints
 62
     0
440
 16777216
100
AcDbPoint
 10
318.0584888504001
 20
160.3919282806946
 30
0.0
  0
POINT
  5
5C9
330
4DD
100
AcDbEntity
  8
Defpoints
 62
     0
440
 16777216
100
AcDbPoint
 10
318.0584888504001
 20
168.3919282806946
 30
0.0
  0
POINT
  5
5CA
330
4DD
100
AcDbEntity
  8
Defpoints
 62
     0
440
 16777216
100
AcDbPoint
 10
335.4584888504002
 20
168.3919282806946
 30
0.0
  0
ENDBLK
  5
4DF
330
4DD
100
AcDbEntity
  8
0
100
AcDbBlockEnd
  0
BLOCK
  5
5CD
330
5CC
100
AcDbEntity
  8
0
100
AcDbBlockBegin
  2
*D30
 70
     1
 10
0.0
 20
0.0
 30
0.0
  3
*D30
  1

  0
LINE
  5
6AF
330
5CC
100
AcDbEntity
  8
Bemaßung (ISO)
440
 16777216
100
AcDbLine
 10
153.8584888504002
 20
168.3919282806946
 30
0.0
 11
153.8584888504002
 21
185.635106305618
 31
0.0
  0
LINE
  5
6B0
330
5CC
100
AcDbEntity
  8
Bemaßung (ISO)
440
 16777216
100
AcDbLine
 10
163.8584888504002
 20
169.1919282806946
 30
0.0
 11
163.8584888504002
 21
185.635106305618
 31
0.0
  0
LINE
  5
6B1
330
5CC
100
AcDbEntity
  8
Bemaßung (ISO)
440
 16777216
100
AcDbLine
 10
156.3584888504002
 20
184.635106305618
 30
0.0
 11
161.3584888504002
 21
184.635106305618
 31
0.0
  0
SOLID
  5
6B2
330
5CC
100
AcDbEntity
  8
Bemaßung (ISO)
440
 16777216
100
AcDbTrace
 10
156.3584888504002
 20
185.0517729722847
 30
0.0
 11
156.3584888504002
 21
184.2184396389513
 31
0.0
 12
153.8584888504002
 22
184.635106305618
 32
0.0
 13
153.8584888504002
 23
184.635106305618
 33
0.0
  0
SOLID
  5
6B3
330
5CC
100
AcDbEntity
  8
Bemaßung (ISO)
440
 16777216
100
AcDbTrace
 10
161.3584888504002
 20
185.0517729722847
 30
0.0
 11
161.3584888504002
 21
184.2184396389513
 31
0.0
 12
163.8584888504002
 22
184.635106305618
 32
0.0
 13
163.8584888504002
 23
184.635106305618
 33
0.0
  0
MTEXT
  5
6B4
330
5CC
100
AcDbEntity
  8
Bemaßung (ISO)
440
 16777216
100
AcDbMText
 10
157.1084889058138
 20
188.935106305618
 30
0.0
 40
3.5
 41
0.0
 46
0.0
 71
     1
 72
     1
  1
\A1;{10}
  7
Notiztext (DIN)
 73
     1
 44
1.0
  0
POINT
  5
6B5
330
5CC
100
AcDbEntity
  8
Defpoints
 62
     0
440
 16777216
100
AcDbPoint
 10
153.8584888504002
 20
167.5919282806945
 30
0.0
  0
POINT
  5
6B6
330
5CC
100
AcDbEntity
  8
Defpoints
 62
     0
440
 16777216
100
AcDbPoint
 10
163.8584888504002
 20
168.3919282806946
 30
0.0
  0
POINT
  5
6B7
330
5CC
100
AcDbEntity
  8
Defpoints
 62
     0
440
 16777216
100
AcDbPoint
 10
163.8584888504002
 20
184.635106305618
 30
0.0
  0
ENDBLK
  5
5CE
330
5CC
100
AcDbEntity
  8
0
100
AcDbBlockEnd
  0
BLOCK
  5
6BA
330
6B9
100
AcDbEntity
  8
0
100
AcDbBlockBegin
  2
*D31
 70
     1
 10
0.0
 20
0.0
 30
0.0
  3
*D31
  1

  0
LINE
  5
79C
330
6B9
100
AcDbEntity
  8
Bemaßung (ISO)
440
 16777216
100
AcDbLine
 10
163.8584888504002
 20
159.5919282806945
 30
0.0
 11
163.8584888504002
 21
137.3919282806945
 31
0.0
  0
LINE
  5
79D
330
6B9
100
AcDbEntity
  8
Bemaßung (ISO)
440
 16777216
100
AcDbLine
 10
213.8584888504002
 20
159.5919282806945
 30
0.0
 11
213.8584888504002
 21
137.3919282806945
 31
0.0
  0
LINE
  5
79E
330
6B9
100
AcDbEntity
  8
Bemaßung (ISO)
440
 16777216
100
AcDbLine
 10
166.3584888504002
 20
138.3919282806945
 30
0.0
 11
211.3584888504002
 21
138.3919282806945
 31
0.0
  0
SOLID
  5
79F
330
6B9
100
AcDbEntity
  8
Bemaßung (ISO)
440
 16777216
100
AcDbTrace
 10
166.3584888504002
 20
138.8085949473612
 30
0.0
 11
166.3584888504002
 21
137.9752616140279
 31
0.0
 12
163.8584888504002
 22
138.3919282806945
 32
0.0
 13
163.8584888504002
 23
138.3919282806945
 33
0.0
  0
SOLID
  5
7A0
330
6B9
100
AcDbEntity
  8
Bemaßung (ISO)
440
 16777216
100
AcDbTrace
 10
211.3584888504002
 20
138.8085949473612
 30
0.0
 11
211.3584888504002
 21
137.9752616140279
 31
0.0
 12
213.8584888504002
 22
138.3919282806945
 32
0.0
 13
213.8584888504002
 23
138.3919282806945
 33
0.0
  0
MTEXT
  5
7A1
330
6B9
100
AcDbEntity
  8
Bemaßung (ISO)
440
 16777216
100
AcDbMText
 10
186.7584889168966
 20
142.6919282806946
 30
0.0
 40
3.5
 41
0.0
 46
0.0
 71
     1
 72
     1
  1
\A1;{50}
  7
Notiztext (DIN)
 73
     1
 44
1.0
  0
POINT
  5
7A2
330
6B9
100
AcDbEntity
  8
Defpoints
 62
     0
440
 16777216
100
AcDbPoint
 10
163.8584888504002
 20
160.3919282806946
 30
0.0
  0
POINT
  5
7A3
330
6B9
100
AcDbEntity
  8
Defpoints
 62
     0
440
 16777216
100
AcDbPoint
 10
213.8584888504002
 20
160.3919282806946
 30
0.0
  0
POINT
  5
7A4
330
6B9
100
AcDbEntity
  8
Defpoints
 62
     0
440
 16777216
100
AcDbPoint
 10
213.8584888504002
 20
138.3919282806945
 30
0.0
  0
ENDBLK
  5
6BB
330
6B9
100
AcDbEntity
  8
0
100
AcDbBlockEnd
  0
BLOCK
  5
7A7
330
7A6
100
AcDbEntity
  8
0
100
AcDbBlockBegin
  2
*D32
 70
     1
 10
0.0
 20
0.0
 30
0.0
  3
*D32
  1

  0
LINE
  5
87B
330
7A6
100
AcDbEntity
  8
Bemaßung (ISO)
440
 16777216
100
AcDbLine
 10
163.8584888504002
 20
159.5919282806945
 30
0.0
 11
163.8584888504002
 21
123.3919282806946
 31
0.0
  0
LINE
  5
87C
330
7A6
100
AcDbEntity
  8
Bemaßung (ISO)
440
 16777216
100
AcDbLine
 10
308.8584888504002
 20
156.6919282806946
 30
0.0
 11
308.8584888504002
 21
123.3919282806946
 31
0.0
  0
LINE
  5
87D
330
7A6
100
AcDbEntity
  8
Bemaßung (ISO)
440
 16777216
100
AcDbLine
 10
166.3584888504002
 20
124.3919282806946
 30
0.0
 11
306.3584888504002
 21
124.3919282806946
 31
0.0
  0
SOLID
  5
87E
330
7A6
100
AcDbEntity
  8
Bemaßung (ISO)
440
 16777216
100
AcDbTrace
 10
166.3584888504002
 20
124.8085949473612
 30
0.0
 11
166.3584888504002
 21
123.9752616140279
 31
0.0
 12
163.8584888504002
 22
124.3919282806946
 32
0.0
 13
163.8584888504002
 23
124.3919282806946
 33
0.0
  0
SOLID
  5
87F
330
7A6
100
AcDbEntity
  8
Bemaßung (ISO)
440
 16777216
100
AcDbTrace
 10
306.3584888504002
 20
124.8085949473612
 30
0.0
 11
306.3584888504002
 21
123.9752616140279
 31
0.0
 12
308.8584888504002
 22
124.3919282806946
 32
0.0
 13
308.8584888504002
 23
124.3919282806946
 33
0.0
  0
MTEXT
  5
880
330
7A6
100
AcDbEntity
  8
Bemaßung (ISO)
440
 16777216
100
AcDbMText
 10
233.2084889501449
 20
128.6919282806946
 30
0.0
 40
3.5
 41
0.0
 46
0.0
 71
     1
 72
     1
  1
\A1;{145}
  7
Notiztext (DIN)
 73
     1
 44
1.0
  0
POINT
  5
881
330
7A6
100
AcDbEntity
  8
Defpoints
 62
     0
440
 16777216
100
AcDbPoint
 10
163.8584888504002
 20
160.3919282806946
 30
0.0
  0
POINT
  5
882
330
7A6
100
AcDbEntity
  8
Defpoints
 62
     0
440
 16777216
100
AcDbPoint
 10
308.8584888504002
 20
157.4919282806946
 30
0.0
  0
POINT
  5
883
330
7A6
100
AcDbEntity
  8
Defpoints
 62
     0
440
 16777216
100
AcDbPoint
 10
308.8584888504002
 20
124.3919282806946
 30
0.0
  0
ENDBLK
  5
7A8
330
7A6
100
AcDbEntity
  8
0
100
AcDbBlockEnd
  0
ENDSEC
  0
SECTION
  2
ENTITIES
  0
LINE
  5
2D5
330
70
100
AcDbEntity
  8
Sichtbar (ISO)
100
AcDbLine
 10
214.8584888504002
 20
157.4919282806946
 30
0.0
 11
214.8584888504002
 21
171.2919282806946
 31
0.0
  0
LINE
  5
2D6
330
70
100
AcDbEntity
  8
Sichtbar (ISO)
100
AcDbLine
 10
213.8584888504002
 20
157.4919282806946
 30
0.0
 11
213.8584888504002
 21
171.2919282806946
 31
0.0
  0
LINE
  5
2D7
330
70
100
AcDbEntity
  8
Sichtbar (ISO)
100
AcDbLine
 10
216.0084888504002
 20
158.6419282806946
 30
0.0
 11
216.0084888504002
 21
170.1419282806945
 31
0.0
  0
LINE
  5
2D8
330
70
100
AcDbEntity
  8
Sichtbar (ISO)
100
AcDbLine
 10
306.7084888504003
 20
158.6419282806946
 30
0.0
 11
306.7084888504003
 21
170.1419282806946
 31
0.0
  0
LINE
  5
2D9
330
70
100
AcDbEntity
  8
Sichtbar (ISO)
100
AcDbLine
 10
307.8584888504002
 20
157.4919282806946
 30
0.0
 11
307.8584888504002
 21
171.2919282806946
 31
0.0
  0
LINE
  5
2DA
330
70
100
AcDbEntity
  8
Sichtbar (ISO)
100
AcDbLine
 10
308.8584888504002
 20
157.4919282806946
 30
0.0
 11
308.8584888504002
 21
171.2919282806946
 31
0.0
  0
LINE
  5
2DB
330
70
100
AcDbEntity
  8
Sichtbar (ISO)
100
AcDbLine
 10
220.545548687725
 20
173.8919282806946
 30
0.0
 11
302.1714290130756
 21
173.8919282806946
 31
0.0
  0
LINE
  5
2DC
330
70
100
AcDbEntity
  8
Sichtbar (ISO)
100
AcDbLine
 10
220.545548687725
 20
154.8919282806946
 30
0.0
 11
302.1714290130756
 21
154.8919282806946
 31
0.0
  0
LINE
  5
2DD
330
70
100
AcDbEntity
  8
Sichtbar (ISO)
100
AcDbLine
 10
213.8584888504002
 20
171.2919282806946
 30
0.0
 11
214.8584888504002
 21
171.2919282806946
 31
0.0
  0
LINE
  5
2DE
330
70
100
AcDbEntity
  8
Sichtbar (ISO)
100
AcDbLine
 10
213.8584888504002
 20
157.4919282806946
 30
0.0
 11
214.8584888504002
 21
157.4919282806946
 31
0.0
  0
LINE
  5
2DF
330
70
100
AcDbEntity
  8
Sichtbar (ISO)
100
AcDbLine
 10
216.0084888504002
 20
158.6419282806946
 30
0.0
 11
214.8584888504002
 21
157.4919282806946
 31
0.0
  0
LINE
  5
2E0
330
70
100
AcDbEntity
  8
Sichtbar (ISO)
100
AcDbLine
 10
216.0084888504002
 20
170.1419282806945
 30
0.0
 11
214.8584888504002
 21
171.2919282806946
 31
0.0
  0
LINE
  5
2E1
330
70
100
AcDbEntity
  8
Sichtbar (ISO)
100
AcDbLine
 10
216.0084888504002
 20
170.1419282806945
 30
0.0
 11
216.1084888504003
 21
170.1419282806945
 31
0.0
  0
LINE
  5
2E2
330
70
100
AcDbEntity
  8
Sichtbar (ISO)
100
AcDbLine
 10
216.0084888504002
 20
158.6419282806946
 30
0.0
 11
216.1084888504003
 21
158.6419282806946
 31
0.0
  0
LINE
  5
2E3
330
70
100
AcDbEntity
  8
Sichtbar (ISO)
100
AcDbLine
 10
306.6084888504002
 20
170.1419282806946
 30
0.0
 11
306.7084888504003
 21
170.1419282806946
 31
0.0
  0
LINE
  5
2E4
330
70
100
AcDbEntity
  8
Sichtbar (ISO)
100
AcDbLine
 10
306.6084888504002
 20
158.6419282806946
 30
0.0
 11
306.7084888504003
 21
158.6419282806946
 31
0.0
  0
LINE
  5
2E5
330
70
100
AcDbEntity
  8
Sichtbar (ISO)
100
AcDbLine
 10
306.7084888504003
 20
170.1419282806946
 30
0.0
 11
307.8584888504002
 21
171.2919282806946
 31
0.0
  0
LINE
  5
2E6
330
70
100
AcDbEntity
  8
Sichtbar (ISO)
100
AcDbLine
 10
306.7084888504003
 20
158.6419282806946
 30
0.0
 11
307.8584888504002
 21
157.4919282806946
 31
0.0
  0
LINE
  5
2E7
330
70
100
AcDbEntity
  8
Sichtbar (ISO)
100
AcDbLine
 10
307.8584888504002
 20
171.2919282806946
 30
0.0
 11
308.8584888504002
 21
171.2919282806946
 31
0.0
  0
LINE
  5
2E8
330
70
100
AcDbEntity
  8
Sichtbar (ISO)
100
AcDbLine
 10
307.8584888504002
 20
157.4919282806946
 30
0.0
 11
308.8584888504002
 21
157.4919282806946
 31
0.0
  0
LINE
  5
2E9
330
70
100
AcDbEntity
  8
Sichtbar (ISO)
100
AcDbLine
 10
163.8584888504002
 20
160.3919282806946
 30
0.0
 11
163.8584888504002
 21
168.3919282806945
 31
0.0
  0
LINE
  5
2EA
330
70
100
AcDbEntity
  8
Sichtbar (ISO)
100
AcDbLine
 10
163.8584888504002
 20
168.3919282806946
 30
0.0
 11
213.8584888504002
 21
168.3919282806946
 31
0.0
  0
LINE
  5
2EB
330
70
100
AcDbEntity
  8
Sichtbar (ISO)
100
AcDbLine
 10
163.8584888504002
 20
160.3919282806946
 30
0.0
 11
213.8584888504002
 21
160.3919282806946
 31
0.0
  0
LINE
  5
2EC
330
70
100
AcDbEntity
  8
Sichtbar (ISO)
100
AcDbLine
 10
154.6584888504002
 20
168.3919282806945
 30
0.0
 11
154.6584888504002
 21
160.3919282806946
 31
0.0
  0
LINE
  5
2ED
330
70
100
AcDbEntity
  8
Sichtbar (ISO)
100
AcDbLine
 10
153.8584888504002
 20
161.1919282806946
 30
0.0
 11
153.8584888504002
 21
167.5919282806945
 31
0.0
  0
LINE
  5
2EE
330
70
100
AcDbEntity
  8
Sichtbar (ISO)
100
AcDbLine
 10
153.8584888504002
 20
167.5919282806945
 30
0.0
 11
154.6584888504002
 21
168.3919282806946
 31
0.0
  0
LINE
  5
2EF
330
70
100
AcDbEntity
  8
Sichtbar (ISO)
100
AcDbLine
 10
153.8584888504001
 20
161.1919282806946
 30
0.0
 11
154.6584888504001
 21
160.3919282806946
 31
0.0
  0
LINE
  5
2F0
330
70
100
AcDbEntity
  8
Sichtbar (ISO)
100
AcDbLine
 10
163.8584888504001
 20
168.3919282806945
 30
0.0
 11
163.8584888504001
 21
160.3919282806946
 31
0.0
  0
LINE
  5
2F1
330
70
100
AcDbEntity
  8
Sichtbar (ISO)
100
AcDbLine
 10
163.8584888504001
 20
160.3919282806946
 30
0.0
 11
154.6584888504001
 21
160.3919282806946
 31
0.0
  0
LINE
  5
2F2
330
70
100
AcDbEntity
  8
Sichtbar (ISO)
100
AcDbLine
 10
216.1084888504003
 20
158.6419282806946
 30
0.0
 11
216.1084888504003
 21
170.1419282806945
 31
0.0
  0
LINE
  5
2F3
330
70
100
AcDbEntity
  8
Sichtbar (ISO)
100
AcDbLine
 10
318.0584888504001
 20
160.3919282806946
 30
0.0
 11
318.0584888504001
 21
168.3919282806946
 31
0.0
  0
LINE
  5
2F4
330
70
100
AcDbEntity
  8
Sichtbar (ISO)
100
AcDbLine
 10
318.8584888504002
 20
167.5919282806946
 30
0.0
 11
318.8584888504002
 21
161.1919282806946
 31
0.0
  0
LINE
  5
2F5
330
70
100
AcDbEntity
  8
Sichtbar (ISO)
100
AcDbLine
 10
318.8584888504002
 20
161.1919282806946
 30
0.0
 11
318.0584888504001
 21
160.3919282806946
 31
0.0
  0
LINE
  5
2F6
330
70
100
AcDbEntity
  8
Sichtbar (ISO)
100
AcDbLine
 10
318.8584888504002
 20
167.5919282806946
 30
0.0
 11
318.0584888504001
 21
168.3919282806946
 31
0.0
  0
LINE
  5
2F7
330
70
100
AcDbEntity
  8
Sichtbar (ISO)
100
AcDbLine
 10
308.8584888504001
 20
168.3919282806946
 30
0.0
 11
318.0584888504001
 21
168.3919282806946
 31
0.0
  0
LINE
  5
2F8
330
70
100
AcDbEntity
  8
Sichtbar (ISO)
100
AcDbLine
 10
163.8584888504001
 20
168.3919282806945
 30
0.0
 11
154.6584888504002
 21
168.3919282806946
 31
0.0
  0
ARC
  5
2F9
330
70
100
AcDbEntity
  8
Sichtbar (ISO)
100
AcDbCircle
 10
220.545548687725
 20
159.3919282806946
 30
0.0
 40
4.5
100
AcDbArc
 50
189.5940682268603
 51
270.0
  0
ARC
  5
2FA
330
70
100
AcDbEntity
  8
Sichtbar (ISO)
100
AcDbCircle
 10
220.545548687725
 20
169.3919282806946
 30
0.0
 40
4.5
100
AcDbArc
 50
90.0
 51
170.4059317731396
  0
LINE
  5
2FB
330
70
100
AcDbEntity
  8
Sichtbar (ISO)
100
AcDbLine
 10
306.6084888504002
 20
158.6419282806946
 30
0.0
 11
306.6084888504002
 21
170.1419282806946
 31
0.0
  0
ARC
  5
2FC
330
70
100
AcDbEntity
  8
Sichtbar (ISO)
100
AcDbCircle
 10
302.1714290130756
 20
169.3919282806946
 30
0.0
 40
4.5
100
AcDbArc
 50
9.594068226860343
 51
90.0
  0
ARC
  5
2FD
330
70
100
AcDbEntity
  8
Sichtbar (ISO)
100
AcDbCircle
 10
302.1714290130756
 20
159.3919282806946
 30
0.0
 40
4.5
100
AcDbArc
 50
270.0
 51
350.4059317731397
  0
LINE
  5
2FE
330
70
100
AcDbEntity
  8
Sichtbar (ISO)
100
AcDbLine
 10
308.8584888504001
 20
160.3919282806946
 30
0.0
 11
318.0584888504002
 21
160.3919282806946
 31
0.0
  0
DIMENSION
  5
2FF
330
70
100
AcDbEntity
  8
Bemaßung (ISO)
100
AcDbDimension
280
     0
  2
*D27
 10
318.8584888504002
 20
184.9328001001021
 30
0.0
 11
313.8584888504002
 21
184.9328001001021
 31
0.0
 70
   160
  1
{<>}
 42
9.999999999999943
 73
     0
 74
     0
 75
     0
  3
Standard (DIN)
100
AcDbAlignedDimension
 13
308.8584888504002
 23
171.2919282806946
 33
0.0
 14
318.8584888504002
 24
167.5919282806946
 34
0.0
 50
180.0
100
AcDbRotatedDimension
1001
ACAD
1000
DSTYLE
1002
{
1070
   172
1070
     0
1070
   289
1070
     1
1070
   271
1070
     2
1070
   147
1040
0.8
1070
    72
1070
     0
1070
    71
1070
     0
1070
   272
1070
     2
1070
    48
1040
0.0
1070
    47
1040
0.0
1002
}
  0
DIMENSION
  5
3ED
330
70
100
AcDbEntity
  8
Bemaßung (ISO)
100
AcDbDimension
280
     0
  2
*D28
 10
131.2584888504001
 20
160.3919282806946
 30
0.0
 11
131.2584888504001
 21
164.3919282806946
 31
0.0
 70
   160
  1
{{M}<>}
 42
7.999999999999971
 73
     0
 74
     0
 75
     0
  3
Standard (DIN)
100
AcDbAlignedDimension
 13
154.6584888504002
 23
168.3919282806945
 33
0.0
 14
154.6584888504002
 24
160.3919282806946
 34
0.0
 50
90.0
100
AcDbRotatedDimension
1001
ACAD
1000
DSTYLE
1002
{
1070
   172
1070
     0
1070
   289
1070
     1
1070
   271
1070
     2
1070
   147
1040
0.8
1070
    72
1070
     0
1070
    71
1070
     0
1070
   272
1070
     2
1070
    48
1040
0.0
1070
    47
1040
0.0
1002
}
  0
DIMENSION
  5
4DC
330
70
100
AcDbEntity
  8
Bemaßung (ISO)
100
AcDbDimension
280
     0
  2
*D29
 10
335.4584888504002
 20
168.3919282806946
 30
0.0
 11
335.4584888504001
 21
164.3919282806946
 31
0.0
 70
   160
  1
{{M}<>}
 42
7.999999999999971
 73
     0
 74
     0
 75
     0
  3
Standard (DIN)
100
AcDbAlignedDimension
 13
318.0584888504001
 23
160.3919282806946
 33
0.0
 14
318.0584888504001
 24
168.3919282806946
 34
0.0
 50
90.0
100
AcDbRotatedDimension
1001
ACAD
1000
DSTYLE
1002
{
1070
   172
1070
     0
1070
   289
1070
     1
1070
   271
1070
     2
1070
   147
1040
0.8
1070
    72
1070
     0
1070
    71
1070
     0
1070
   272
1070
     2
1070
    48
1040
0.0
1070
    47
1040
0.0
1002
}
  0
DIMENSION
  5
5CB
330
70
100
AcDbEntity
  8
Bemaßung (ISO)
100
AcDbDimension
280
     0
  2
*D30
 10
163.8584888504002
 20
184.635106305618
 30
0.0
 11
158.8584888504001
 21
184.635106305618
 31
0.0
 70
   160
  1
{<>}
 42
10.00000000000003
 73
     0
 74
     0
 75
     0
  3
Standard (DIN)
100
AcDbAlignedDimension
 13
153.8584888504002
 23
167.5919282806945
 33
0.0
 14
163.8584888504002
 24
168.3919282806946
 34
0.0
 50
180.0
100
AcDbRotatedDimension
1001
ACAD
1000
DSTYLE
1002
{
1070
   172
1070
     0
1070
   289
1070
     1
1070
   271
1070
     2
1070
   147
1040
0.8
1070
    72
1070
     0
1070
    71
1070
     0
1070
   272
1070
     2
1070
    48
1040
0.0
1070
    47
1040
0.0
1002
}
  0
DIMENSION
  5
6B8
330
70
100
AcDbEntity
  8
Bemaßung (ISO)
100
AcDbDimension
280
     0
  2
*D31
 10
213.8584888504002
 20
138.3919282806945
 30
0.0
 11
188.8584888504002
 21
138.3919282806945
 31
0.0
 70
   160
  1
{<>}
 42
50.0
 73
     0
 74
     0
 75
     0
  3
Standard (DIN)
100
AcDbAlignedDimension
 13
163.8584888504002
 23
160.3919282806946
 33
0.0
 14
213.8584888504002
 24
160.3919282806946
 34
0.0
 50
180.0
100
AcDbRotatedDimension
1001
ACAD
1000
DSTYLE
1002
{
1070
   172
1070
     0
1070
   289
1070
     1
1070
   271
1070
     2
1070
   147
1040
0.8
1070
    72
1070
     0
1070
    71
1070
     0
1070
   272
1070
     2
1070
    48
1040
0.0
1070
    47
1040
0.0
1002
}
  0
DIMENSION
  5
7A5
330
70
100
AcDbEntity
  8
Bemaßung (ISO)
100
AcDbDimension
280
     0
  2
*D32
 10
308.8584888504002
 20
124.3919282806946
 30
0.0
 11
236.3584888504003
 21
124.3919282806946
 31
0.0
 70
   160
  1
{<>}
 42
145.0
 73
     0
 74
     0
 75
     0
  3
Standard (DIN)
100
AcDbAlignedDimension
 13
163.8584888504002
 23
160.3919282806946
 33
0.0
 14
308.8584888504002
 24
157.4919282806946
 34
0.0
 50
180.0
100
AcDbRotatedDimension
1001
ACAD
1000
DSTYLE
1002
{
1070
   172
1070
     0
1070
   289
1070
     1
1070
   271
1070
     2
1070
   147
1040
0.8
1070
    72
1070
     0
1070
    71
1070
     0
1070
   272
1070
     2
1070
    48
1040
0.0
1070
    47
1040
0.0
1002
}
  0
ENDSEC
  0
SECTION
  2
OBJECTS
  0
DICTIONARY
  5
C
330
0
100
AcDbDictionary
281
     1
  3
ACAD_CIP_PREVIOUS_PRODUCT_INFO
350
884
  3
ACAD_COLOR
350
63
  3
ACAD_DETAILVIEWSTYLE
350
6A
  3
ACAD_GROUP
350
D
  3
ACAD_LAYOUT
350
62
  3
ACAD_MATERIAL
350
10
  3
ACAD_MLEADERSTYLE
350
66
  3
ACAD_MLINESTYLE
350
5F
  3
ACAD_PLOTSETTINGS
350
61
  3
ACAD_PLOTSTYLENAME
350
E
  3
ACAD_SCALELIST
350
42
  3
ACAD_SECTIONVIEWSTYLE
350
68
  3
ACAD_TABLESTYLE
350
64
  3
ACAD_VISUALSTYLE
350
29
  3
ACDB_RECOMPOSE_DATA
350
8DF
  3
AcDbVariableDictionary
350
885
  0
DICTIONARY
  5
892
330
1B0
100
AcDbDictionary
280
     1
281
     1
  3
ACAD_MLATT
360
894
  3
ACAD_XREC_ROUNDTRIP
360
893
  0
DICTIONARY
  5
895
330
1B5
100
AcDbDictionary
280
     1
281
     1
  3
ACAD_MLATT
360
897
  3
ACAD_XREC_ROUNDTRIP
360
896
  0
DICTIONARY
  5
898
330
1DA
100
AcDbDictionary
280
     1
281
     1
  3
ACAD_MLATT
360
89A
  3
ACAD_XREC_ROUNDTRIP
360
899
  0
DICTIONARY
  5
89B
330
1DB
100
AcDbDictionary
280
     1
281
     1
  3
ACAD_MLATT
360
89D
  3
ACAD_XREC_ROUNDTRIP
360
89C
  0
DICTIONARY
  5
89F
330
1EB
100
AcDbDictionary
280
     1
281
     1
  3
ACAD_MTEXT_2008_RT
360
8A0
  0
DICTIONARY
  5
8A1
330
1EF
100
AcDbDictionary
280
     1
281
     1
  3
ACAD_MTEXT_2008_RT
360
8A2
  0
DICTIONARY
  5
8A3
330
261
100
AcDbDictionary
280
     1
281
     1
  3
ACAD_MLATT
360
8A5
  3
ACAD_XREC_ROUNDTRIP
360
8A4
  0
DICTIONARY
  5
8A6
330
262
100
AcDbDictionary
280
     1
281
     1
  3
ACAD_MLATT
360
8A8
  3
ACAD_XREC_ROUNDTRIP
360
8A7
  0
DICTIONARY
  5
8A9
330
263
100
AcDbDictionary
280
     1
281
     1
  3
ACAD_MLATT
360
8AB
  3
ACAD_XREC_ROUNDTRIP
360
8AA
  0
DICTIONARY
  5
8AC
330
264
100
AcDbDictionary
280
     1
281
     1
  3
ACAD_MLATT
360
8AE
  3
ACAD_XREC_ROUNDTRIP
360
8AD
  0
DICTIONARY
  5
8AF
330
265
100
AcDbDictionary
280
     1
281
     1
  3
ACAD_MLATT
360
8B1
  3
ACAD_XREC_ROUNDTRIP
360
8B0
  0
DICTIONARY
  5
8B2
330
266
100
AcDbDictionary
280
     1
281
     1
  3
ACAD_MLATT
360
8B4
  3
ACAD_XREC_ROUNDTRIP
360
8B3
  0
DICTIONARY
  5
8B5
330
267
100
AcDbDictionary
280
     1
281
     1
  3
ACAD_MLATT
360
8B7
  3
ACAD_XREC_ROUNDTRIP
360
8B6
  0
DICTIONARY
  5
8B8
330
268
100
AcDbDictionary
280
     1
281
     1
  3
ACAD_MLATT
360
8BA
  3
ACAD_XREC_ROUNDTRIP
360
8B9
  0
DICTIONARY
  5
8BB
330
269
100
AcDbDictionary
280
     1
281
     1
  3
ACAD_MLATT
360
8BD
  3
ACAD_XREC_ROUNDTRIP
360
8BC
  0
DICTIONARY
  5
8BE
330
26A
100
AcDbDictionary
280
     1
281
     1
  3
ACAD_MLATT
360
8C0
  3
ACAD_XREC_ROUNDTRIP
360
8BF
  0
DICTIONARY
  5
8C1
330
26B
100
AcDbDictionary
280
     1
281
     1
  3
ACAD_MLATT
360
8C3
  3
ACAD_XREC_ROUNDTRIP
360
8C2
  0
DICTIONARY
  5
8C4
330
26C
100
AcDbDictionary
280
     1
281
     1
  3
ACAD_MLATT
360
8C6
  3
ACAD_XREC_ROUNDTRIP
360
8C5
  0
DICTIONARY
  5
8C7
330
26D
100
AcDbDictionary
280
     1
281
     1
  3
ACAD_MLATT
360
8C9
  3
ACAD_XREC_ROUNDTRIP
360
8C8
  0
DICTIONARY
  5
8CA
330
26E
100
AcDbDictionary
280
     1
281
     1
  3
ACAD_MLATT
360
8CC
  3
ACAD_XREC_ROUNDTRIP
360
8CB
  0
DICTIONARY
  5
8CD
330
26F
100
AcDbDictionary
280
     1
281
     1
  3
ACAD_MLATT
360
8CF
  3
ACAD_XREC_ROUNDTRIP
360
8CE
  0
DICTIONARY
  5
8D0
330
270
100
AcDbDictionary
280
     1
281
     1
  3
ACAD_MLATT
360
8D2
  3
ACAD_XREC_ROUNDTRIP
360
8D1
  0
DICTIONARY
  5
8D3
330
271
100
AcDbDictionary
280
     1
281
     1
  3
ACAD_MLATT
360
8D5
  3
ACAD_XREC_ROUNDTRIP
360
8D4
  0
DICTIONARY
  5
8D6
330
272
100
AcDbDictionary
280
     1
281
     1
  3
ACAD_MLATT
360
8D8
  3
ACAD_XREC_ROUNDTRIP
360
8D7
  0
DICTIONARY
  5
8D9
330
273
100
AcDbDictionary
280
     1
281
     1
  3
ACAD_MLATT
360
8DB
  3
ACAD_XREC_ROUNDTRIP
360
8DA
  0
DICTIONARY
  5
8DC
330
274
100
AcDbDictionary
280
     1
281
     1
  3
ACAD_MLATT
360
8DE
  3
ACAD_XREC_ROUNDTRIP
360
8DD
  0
XRECORD
  5
884
102
{ACAD_REACTORS
330
C
102
}
330
C
100
AcDbXrecord
280
     1
300
INVPROSA
300
2016
300
86462PDSU_2016_0F
  0
DICTIONARY
  5
63
102
{ACAD_REACTORS
330
C
102
}
330
C
100
AcDbDictionary
281
     1
  0
DICTIONARY
  5
6A
102
{ACAD_REACTORS
330
C
102
}
330
C
100
AcDbDictionary
281
     1
  3
Imperial24
350
6B
  0
DICTIONARY
  5
D
102
{ACAD_REACTORS
330
C
102
}
330
C
100
AcDbDictionary
281
     1
  0
DICTIONARY
  5
62
102
{ACAD_REACTORS
330
C
102
}
330
C
100
AcDbDictionary
281
     1
  3
Layout1
350
6F
  3
Layout2
350
77
  3
Model
350
73
  0
DICTIONARY
  5
10
102
{ACAD_REACTORS
330
C
102
}
330
C
100
AcDbDictionary
281
     1
  3
ByBlock
350
19
  3
ByLayer
350
11
  3
Global
350
21
  0
DICTIONARY
  5
66
102
{ACAD_REACTORS
330
C
102
}
330
C
100
AcDbDictionary
281
     1
  3
Standard
350
67
  0
DICTIONARY
  5
5F
102
{ACAD_REACTORS
330
C
102
}
330
C
100
AcDbDictionary
281
     1
  3
Standard
350
60
  0
DICTIONARY
  5
61
102
{ACAD_REACTORS
330
C
102
}
330
C
100
AcDbDictionary
281
     1
  0
ACDBDICTIONARYWDFLT
  5
E
102
{ACAD_REACTORS
330
C
102
}
330
C
100
AcDbDictionary
281
     1
  3
Normal
350
F
100
AcDbDictionaryWithDefault
340
F
  0
DICTIONARY
  5
42
102
{ACAD_REACTORS
330
C
102
}
330
C
100
AcDbDictionary
281
     1
  3
A0
350
43
  3
A1
350
44
  3
A2
350
45
  3
A3
350
46
  3
A4
350
47
  3
A5
350
48
  3
A6
350
49
  3
A7
350
4A
  3
A8
350
4B
  3
A9
350
4C
  3
B0
350
4D
  3
B1
350
4E
  3
B2
350
4F
  3
B3
350
50
  3
B4
350
51
  3
B5
350
52
  3
B6
350
53
  0
DICTIONARY
  5
68
102
{ACAD_REACTORS
330
C
102
}
330
C
100
AcDbDictionary
281
     1
  3
Imperial24
350
69
  0
DICTIONARY
  5
64
102
{ACAD_REACTORS
330
C
102
}
330
C
100
AcDbDictionary
281
     1
  3
Standard
350
65
  0
DICTIONARY
  5
29
102
{ACAD_REACTORS
330
C
102
}
330
C
100
AcDbDictionary
281
     1
  3
2dWireframe
350
2F
  3
Basic
350
2E
  3
Brighten
350
35
  3
ColorChange
350
39
  3
Conceptual
350
32
  3
Dim
350
34
  3
EdgeColorOff
350
41
  3
Facepattern
350
38
  3
Flat
350
2A
  3
FlatWithEdges
350
2B
  3
Gouraud
350
2C
  3
GouraudWithEdges
350
2D
  3
Hidden
350
31
  3
JitterOff
350
3F
  3
Linepattern
350
37
  3
OverhangOff
350
40
  3
Realistic
350
33
  3
Shaded
350
3E
  3
Shaded with edges
350
3D
  3
Shades of Gray
350
3A
  3
Sketchy
350
3B
  3
Thicken
350
36
  3
Wireframe
350
30
  3
X-Ray
350
3C
  0
XRECORD
  5
8DF
102
{ACAD_REACTORS
330
C
102
}
330
C
100
AcDbXrecord
280
     1
 90
        1
330
65
330
69
330
6B
330
1B0
330
1B5
330
1DA
330
1DB
330
1EB
330
1EF
330
261
330
262
330
263
330
264
330
265
330
266
330
267
330
268
330
269
330
26A
330
26B
330
26C
330
26D
330
26E
330
26F
330
270
330
271
330
272
330
273
330
274
  0
DICTIONARY
  5
885
102
{ACAD_REACTORS
330
C
102
}
330
C
100
AcDbDictionary
281
     1
  3
CANNOSCALE
350
88A
  3
CMLEADERSTYLE
350
887
  3
CTABLESTYLE
350
886
  3
CVIEWDETAILSTYLE
350
888
  3
CVIEWSECTIONSTYLE
350
889
  0
XRECORD
  5
894
102
{ACAD_REACTORS
330
892
102
}
330
892
100
AcDbXrecord
280
     1
 70
     4
 70
     0
 70
     0
 40
1.0
  2
Kolbenstangenlänge_=_Hub_+_?_mm
  1
Embedded Object
 10
116.2125009366513
 20
19.00000000000002
 30
0.0
 40
3.499999940395355
 41
0.0
 46
0.0
 71
     1
 72
     5
  1

  7
Notiztext (DIN)
 73
     1
 44
1.0
  0
XRECORD
  5
893
102
{ACAD_REACTORS
330
892
102
}
330
892
100
AcDbXrecord
280
     1
102
ACAD_MATT_HEIGHT
140
3.499999940395355
  0
XRECORD
  5
897
102
{ACAD_REACTORS
330
895
102
}
330
895
100
AcDbXrecord
280
     1
 70
     4
 70
     0
 70
     0
 40
1.0
  2
Gesamtlänge_ausgefahren_2_x_HUB_+
  1
Embedded Object
 10
116.2113753446558
 20
11.99999999999999
 30
0.0
 40
3.499999940395355
 41
0.0
 46
0.0
 71
     1
 72
     5
  1

  7
Notiztext (DIN)
 73
     1
 44
1.0
  0
XRECORD
  5
896
102
{ACAD_REACTORS
330
895
102
}
330
895
100
AcDbXrecord
280
     1
102
ACAD_MATT_HEIGHT
140
3.499999940395355
  0
XRECORD
  5
89A
102
{ACAD_REACTORS
330
898
102
}
330
898
100
AcDbXrecord
280
     1
 70
     4
 70
     0
 70
     0
 40
1.0
  2
A_oder_B
  1
Embedded Object
 10
-16.01934532153102
 20
-6.613995777682752
 30
0.0
 40
2.5
 41
21.91300539665484
 46
0.0
 71
     1
 72
     5
  1

  7
Textstil12
 73
     1
 44
1.0
  0
XRECORD
  5
899
102
{ACAD_REACTORS
330
898
102
}
330
898
100
AcDbXrecord
280
     1
102
ACAD_MATT_HEIGHT
140
2.5
  0
XRECORD
  5
89D
102
{ACAD_REACTORS
330
89B
102
}
330
89B
100
AcDbXrecord
280
     1
 70
     4
 70
     0
 70
     0
 40
1.0
  2
Druck
  1
Embedded Object
 10
-15.62320944112755
 20
-12.29537757685417
 30
0.0
 40
2.5
 41
12.38720218023221
 46
0.0
 71
     5
 72
     5
  1

  7
Textstil12
 73
     1
 44
1.0
  0
XRECORD
  5
89C
102
{ACAD_REACTORS
330
89B
102
}
330
89B
100
AcDbXrecord
280
     1
102
ACAD_MATT_HEIGHT
140
2.5
  0
XRECORD
  5
8A0
102
{ACAD_REACTORS
330
89F
102
}
330
89F
100
AcDbXrecord
280
     1
 40
875122.0
  1
\pxsm0.94;\fISOCPEUR|b0|i0;\H2.5000;Hartverchromt\PSchichtdicke 15-20 \fSymbol|b0|i0;\H2.5000;m\fSymbol|b0|i0;\H2.9998;\P\fISOCPEUR|b0|i0;\H2.9998; \P
  0
XRECORD
  5
8A2
102
{ACAD_REACTORS
330
8A1
102
}
330
8A1
100
AcDbXrecord
280
     1
 40
182748.0
  1
\pxsm0.94;\fISOCPEUR|b0|i0;\H7.0000;Nur zur Information\fISOCPEUR|b0|i0;\H2.5000;\P\fISOCPEUR|b0|i0;\H14.0000;Nicht Freigegeben !
  0
XRECORD
  5
8A5
102
{ACAD_REACTORS
330
8A3
102
}
330
8A3
100
AcDbXrecord
280
     1
 70
     4
 70
     0
 70
     0
 40
1.0
  2
Mobilgear_SHC_XMP_220
  1
Embedded Object
 10
48.74218633071293
 20
-68.46886235190028
 30
0.0
 40
3.499999940395355
 41
0.0
 46
0.0
 71
     1
 72
     5
  1

  7
Notiztext (DIN)
 73
     1
 44
1.0
  0
XRECORD
  5
8A4
102
{ACAD_REACTORS
330
8A3
102
}
330
8A3
100
AcDbXrecord
280
     1
102
ACAD_MATT_HEIGHT
140
3.499999940395355
  0
XRECORD
  5
8A8
102
{ACAD_REACTORS
330
8A6
102
}
330
8A6
100
AcDbXrecord
280
     1
 70
     4
 70
     0
 70
     0
 40
1.0
  2
Mobilgear_SHC_XMP_680
  1
Embedded Object
 10
48.28724555430017
 20
-61.21134341075343
 30
0.0
 40
3.499999940395355
 41
0.0
 46
0.0
 71
     1
 72
     5
  1

  7
Notiztext (DIN)
 73
     1
 44
1.0
  0
XRECORD
  5
8A7
102
{ACAD_REACTORS
330
8A6
102
}
330
8A6
100
AcDbXrecord
280
     1
102
ACAD_MATT_HEIGHT
140
3.499999940395355
  0
XRECORD
  5
8AB
102
{ACAD_REACTORS
330
8A9
102
}
330
8A9
100
AcDbXrecord
280
     1
 70
     4
 70
     0
 70
     0
 40
1.0
  2
SHC_639
  1
Embedded Object
 10
48.22823664392223
 20
-54.66628417952385
 30
0.0
 40
3.499999940395355
 41
0.0
 46
0.0
 71
     1
 72
     5
  1

  7
Notiztext (DIN)
 73
     1
 44
1.0
  0
XRECORD
  5
8AA
102
{ACAD_REACTORS
330
8A9
102
}
330
8A9
100
AcDbXrecord
280
     1
102
ACAD_MATT_HEIGHT
140
3.499999940395355
  0
XRECORD
  5
8AE
102
{ACAD_REACTORS
330
8AC
102
}
330
8AC
100
AcDbXrecord
280
     1
 70
     4
 70
     0
 70
     0
 40
1.0
  2
Vitaminöl_ZH-M
  1
Embedded Object
 10
48.10913062451696
 20
-47.58584200525625
 30
0.0
 40
3.499999940395355
 41
0.0
 46
0.0
 71
     1
 72
     5
  1

  7
Notiztext (DIN)
 73
     1
 44
1.0
  0
XRECORD
  5
8AD
102
{ACAD_REACTORS
330
8AC
102
}
330
8AC
100
AcDbXrecord
280
     1
102
ACAD_MATT_HEIGHT
140
3.499999940395355
  0
XRECORD
  5
8B1
102
{ACAD_REACTORS
330
8AF
102
}
330
8AF
100
AcDbXrecord
280
     1
 70
     4
 70
     0
 70
     0
 40
1.0
  2
AWH-M68
  1
Embedded Object
 10
47.99160518675154
 20
-40.72682027342763
 30
0.0
 40
3.499999940395355
 41
0.0
 46
0.0
 71
     1
 72
     5
  1

  7
Notiztext (DIN)
 73
     1
 44
1.0
  0
XRECORD
  5
8B0
102
{ACAD_REACTORS
330
8AF
102
}
330
8AF
100
AcDbXrecord
280
     1
102
ACAD_MATT_HEIGHT
140
3.499999940395355
  0
XRECORD
  5
8B4
102
{ACAD_REACTORS
330
8B2
102
}
330
8B2
100
AcDbXrecord
280
     1
 70
     4
 70
     0
 70
     0
 40
1.0
  2
AWH-M32
  1
Embedded Object
 10
48.09031610359792
 20
-33.52939844580405
 30
0.0
 40
3.499999940395355
 41
0.0
 46
0.0
 71
     1
 72
     5
  1

  7
Notiztext (DIN)
 73
     1
 44
1.0
  0
XRECORD
  5
8B3
102
{ACAD_REACTORS
330
8B2
102
}
330
8B2
100
AcDbXrecord
280
     1
102
ACAD_MATT_HEIGHT
140
3.499999940395355
  0
XRECORD
  5
8B7
102
{ACAD_REACTORS
330
8B5
102
}
330
8B5
100
AcDbXrecord
280
     1
 70
     4
 70
     0
 70
     0
 40
1.0
  2
HLP_100
  1
Embedded Object
 10
48.48827682435022
 20
-26.34764993086041
 30
0.0
 40
3.499999940395355
 41
0.0
 46
0.0
 71
     1
 72
     5
  1

  7
Notiztext (DIN)
 73
     1
 44
1.0
  0
XRECORD
  5
8B6
102
{ACAD_REACTORS
330
8B5
102
}
330
8B5
100
AcDbXrecord
280
     1
102
ACAD_MATT_HEIGHT
140
3.499999940395355
  0
XRECORD
  5
8BA
102
{ACAD_REACTORS
330
8B8
102
}
330
8B8
100
AcDbXrecord
280
     1
 70
     4
 70
     0
 70
     0
 40
1.0
  2
HLP_32
  1
Embedded Object
 10
48.48827682435022
 20
-19.34764993086039
 30
0.0
 40
3.499999940395355
 41
0.0
 46
0.0
 71
     1
 72
     5
  1

  7
Notiztext (DIN)
 73
     1
 44
1.0
  0
XRECORD
  5
8B9
102
{ACAD_REACTORS
330
8B8
102
}
330
8B8
100
AcDbXrecord
280
     1
102
ACAD_MATT_HEIGHT
140
3.499999940395355
  0
XRECORD
  5
8BD
102
{ACAD_REACTORS
330
8BB
102
}
330
8BB
100
AcDbXrecord
280
     1
 70
     4
 70
     0
 70
     0
 40
1.0
  2
Vebis_K68
  1
Embedded Object
 10
48.48827682435018
 20
-11.99043531524804
 30
0.0
 40
3.499999940395355
 41
0.0
 46
0.0
 71
     1
 72
     5
  1

  7
Notiztext (DIN)
 73
     1
 44
1.0
  0
XRECORD
  5
8BC
102
{ACAD_REACTORS
330
8BB
102
}
330
8BB
100
AcDbXrecord
280
     1
102
ACAD_MATT_HEIGHT
140
3.499999940395355
  0
XRECORD
  5
8C0
102
{ACAD_REACTORS
330
8BE
102
}
330
8BE
100
AcDbXrecord
280
     1
 70
     4
 70
     0
 70
     0
 40
1.0
  2
Vebis_K32
  1
Embedded Object
 10
48.48827682435018
 20
-4.990435315248031
 30
0.0
 40
3.499999940395355
 41
0.0
 46
0.0
 71
     1
 72
     5
  1

  7
Notiztext (DIN)
 73
     1
 44
1.0
  0
XRECORD
  5
8BF
102
{ACAD_REACTORS
330
8BE
102
}
330
8BE
100
AcDbXrecord
280
     1
102
ACAD_MATT_HEIGHT
140
3.499999940395355
  0
XRECORD
  5
8C3
102
{ACAD_REACTORS
330
8C1
102
}
330
8C1
100
AcDbXrecord
280
     1
 70
     4
 70
     0
 70
     0
 40
1.0
  2
Nuto_H_68
  1
Embedded Object
 10
48.48827682435018
 20
2.009564684751961
 30
0.0
 40
3.499999940395355
 41
0.0
 46
0.0
 71
     1
 72
     5
  1

  7
Notiztext (DIN)
 73
     1
 44
1.0
  0
XRECORD
  5
8C2
102
{ACAD_REACTORS
330
8C1
102
}
330
8C1
100
AcDbXrecord
280
     1
102
ACAD_MATT_HEIGHT
140
3.499999940395355
  0
XRECORD
  5
8C6
102
{ACAD_REACTORS
330
8C4
102
}
330
8C4
100
AcDbXrecord
280
     1
 70
     4
 70
     0
 70
     0
 40
1.0
  2
Univis_HVI_26
  1
Embedded Object
 10
48.48827682435018
 20
9.009564684751971
 30
0.0
 40
3.499999940395355
 41
0.0
 46
0.0
 71
     1
 72
     5
  1

  7
Notiztext (DIN)
 73
     1
 44
1.0
  0
XRECORD
  5
8C5
102
{ACAD_REACTORS
330
8C4
102
}
330
8C4
100
AcDbXrecord
280
     1
102
ACAD_MATT_HEIGHT
140
3.499999940395355
  0
XRECORD
  5
8C9
102
{ACAD_REACTORS
330
8C7
102
}
330
8C7
100
AcDbXrecord
280
     1
 70
     4
 70
     0
 70
     0
 40
1.0
  2
ATF_Suffix
  1
Embedded Object
 10
48.13106219880292
 20
15.65235006913964
 30
0.0
 40
3.499999940395355
 41
0.0
 46
0.0
 71
     1
 72
     5
  1

  7
Notiztext (DIN)
 73
     1
 44
1.0
  0
XRECORD
  5
8C8
102
{ACAD_REACTORS
330
8C7
102
}
330
8C7
100
AcDbXrecord
280
     1
102
ACAD_MATT_HEIGHT
140
3.499999940395355
  0
XRECORD
  5
8CC
102
{ACAD_REACTORS
330
8CA
102
}
330
8CA
100
AcDbXrecord
280
     1
 70
     4
 70
     0
 70
     0
 40
1.0
  2
SHC_224
  1
Embedded Object
 10
48.13106219880292
 20
22.65235006913965
 30
0.0
 40
3.499999940395355
 41
0.0
 46
0.0
 71
     1
 72
     5
  1

  7
Notiztext (DIN)
 73
     1
 44
1.0
  0
XRECORD
  5
8CB
102
{ACAD_REACTORS
330
8CA
102
}
330
8CA
100
AcDbXrecord
280
     1
102
ACAD_MATT_HEIGHT
140
3.499999940395355
  0
XRECORD
  5
8CF
102
{ACAD_REACTORS
330
8CD
102
}
330
8CD
100
AcDbXrecord
280
     1
 70
     4
 70
     0
 70
     0
 40
1.0
  2
Nuto_320
  1
Embedded Object
 10
48.13106219880292
 20
29.65235006913964
 30
0.0
 40
3.499999940395355
 41
0.0
 46
0.0
 71
     1
 72
     5
  1

  7
Notiztext (DIN)
 73
     1
 44
1.0
  0
XRECORD
  5
8CE
102
{ACAD_REACTORS
330
8CD
102
}
330
8CD
100
AcDbXrecord
280
     1
102
ACAD_MATT_HEIGHT
140
3.499999940395355
  0
XRECORD
  5
8D2
102
{ACAD_REACTORS
330
8D0
102
}
330
8D0
100
AcDbXrecord
280
     1
 70
     4
 70
     0
 70
     0
 40
1.0
  2
Puri_46
  1
Embedded Object
 10
47.91408360032305
 20
36.79948984726836
 30
0.0
 40
3.499999940395355
 41
0.0
 46
0.0
 71
     1
 72
     5
  1

  7
Notiztext (DIN)
 73
     1
 44
1.0
  0
XRECORD
  5
8D1
102
{ACAD_REACTORS
330
8D0
102
}
330
8D0
100
AcDbXrecord
280
     1
102
ACAD_MATT_HEIGHT
140
3.499999940395355
  0
XRECORD
  5
8D5
102
{ACAD_REACTORS
330
8D3
102
}
330
8D3
100
AcDbXrecord
280
     1
 70
     4
 70
     0
 70
     0
 40
1.0
  2
Bartran
  1
Embedded Object
 10
48.2448721495855
 20
43.61416957327563
 30
0.0
 40
3.499999940395355
 41
0.0
 46
0.0
 71
     1
 72
     5
  1

  7
Notiztext (DIN)
 73
     1
 44
1.0
  0
XRECORD
  5
8D4
102
{ACAD_REACTORS
330
8D3
102
}
330
8D3
100
AcDbXrecord
280
     1
102
ACAD_MATT_HEIGHT
140
3.499999940395355
  0
XRECORD
  5
8D8
102
{ACAD_REACTORS
330
8D6
102
}
330
8D6
100
AcDbXrecord
280
     1
 70
     4
 70
     0
 70
     0
 40
1.0
  2
HLP_220
  1
Embedded Object
 10
48.41608510706956
 20
50.00231618073705
 30
0.0
 40
3.499999940395355
 41
0.0
 46
0.0
 71
     1
 72
     5
  1

  7
Notiztext (DIN)
 73
     1
 44
1.0
  0
XRECORD
  5
8D7
102
{ACAD_REACTORS
330
8D6
102
}
330
8D6
100
AcDbXrecord
280
     1
102
ACAD_MATT_HEIGHT
140
3.499999940395355
  0
XRECORD
  5
8DB
102
{ACAD_REACTORS
330
8D9
102
}
330
8D9
100
AcDbXrecord
280
     1
 70
     4
 70
     0
 70
     0
 40
1.0
  2
HLP_46
  1
Embedded Object
 10
48.18775408967403
 20
57.46613593326826
 30
0.0
 40
3.499999940395355
 41
0.0
 46
0.0
 71
     1
 72
     5
  1

  7
Notiztext (DIN)
 73
     1
 44
1.0
  0
XRECORD
  5
8DA
102
{ACAD_REACTORS
330
8D9
102
}
330
8D9
100
AcDbXrecord
280
     1
102
ACAD_MATT_HEIGHT
140
3.499999940395355
  0
XRECORD
  5
8DE
102
{ACAD_REACTORS
330
8DC
102
}
330
8DC
100
AcDbXrecord
280
     1
 70
     4
 70
     0
 70
     0
 40
1.0
  2
SHC_630
  1
Embedded Object
 10
48.28663276922073
 20
64.56859345766908
 30
0.0
 40
3.499999940395355
 41
0.0
 46
0.0
 71
     1
 72
     5
  1

  7
Notiztext (DIN)
 73
     1
 44
1.0
  0
XRECORD
  5
8DD
102
{ACAD_REACTORS
330
8DC
102
}
330
8DC
100
AcDbXrecord
280
     1
102
ACAD_MATT_HEIGHT
140
3.499999940395355
  0
ACDBDETAILVIEWSTYLE
  5
6B
102
{ACAD_XDICTIONARY
360
88F
102
}
102
{ACAD_REACTORS
330
6A
102
}
330
6A
100
AcDbModelDocViewStyle
 70
     0
  3
Imperial24
290
     0
100
AcDbDetailViewStyle
 70
     0
 71
     0
 90
        3
 71
     1
340
55
 62
   256
 40
0.24
340
0
 62
   256
 40
0.24
300

 40
0.36
280
     3
 71
     2
340
5D
 90
       25
 62
   256
 71
     3
340
55
 62
   256
 40
0.24
 90
        1
 40
0.75
 90
        1
300
%<\AcVar ViewType \f "%tc1">% %<\AcVar ViewDetailId>%\PVARIA %<\AcVar ViewScale \f "%sn">%
 71
     4
340
5D
 90
       25
 62
   256
340
5D
 90
       25
 62
   256
280
     0
  0
LAYOUT
  5
6F
102
{ACAD_REACTORS
330
62
102
}
330
62
100
AcDbPlotSettings
  1

  2

  4

  6

 40
0.0
 41
0.0
 42
0.0
 43
0.0
 44
0.0
 45
0.0
 46
0.0
 47
0.0
 48
0.0
 49
0.0
140
0.0
141
0.0
142
1.0
143
1.0
 70
   688
 72
     0
 73
     0
 74
     5
  7

 75
    16
147
1.0
 76
     0
 77
     2
 78
   300
148
0.0
149
0.0
100
AcDbLayout
  1
Layout1
 70
     1
 71
     1
 10
0.0
 20
0.0
 11
12.0
 21
9.0
 12
0.0
 22
0.0
 32
0.0
 14
0.0
 24
0.0
 34
0.0
 15
0.0
 25
0.0
 35
0.0
146
0.0
 13
0.0
 23
0.0
 33
0.0
 16
1.0
 26
0.0
 36
0.0
 17
0.0
 27
1.0
 37
0.0
 76
     0
330
6C
  0
LAYOUT
  5
77
102
{ACAD_REACTORS
330
62
102
}
330
62
100
AcDbPlotSettings
  1

  2

  4

  6

 40
0.0
 41
0.0
 42
0.0
 43
0.0
 44
0.0
 45
0.0
 46
0.0
 47
0.0
 48
0.0
 49
0.0
140
0.0
141
0.0
142
1.0
143
1.0
 70
   688
 72
     0
 73
     0
 74
     5
  7

 75
    16
147
1.0
 76
     0
 77
     2
 78
   300
148
0.0
149
0.0
100
AcDbLayout
  1
Layout2
 70
     1
 71
     2
 10
0.0
 20
0.0
 11
12.0
 21
9.0
 12
0.0
 22
0.0
 32
0.0
 14
0.0
 24
0.0
 34
0.0
 15
0.0
 25
0.0
 35
0.0
146
0.0
 13
0.0
 23
0.0
 33
0.0
 16
1.0
 26
0.0
 36
0.0
 17
0.0
 27
1.0
 37
0.0
 76
     0
330
74
  0
LAYOUT
  5
73
102
{ACAD_REACTORS
330
62
102
}
330
62
100
AcDbPlotSettings
  1

  2

  4

  6

 40
0.0
 41
0.0
 42
0.0
 43
0.0
 44
0.0
 45
0.0
 46
0.0
 47
0.0
 48
0.0
 49
0.0
140
0.0
141
0.0
142
1.0
143
1.0
 70
  1712
 72
     0
 73
     0
 74
     0
  7

 75
     0
147
1.0
 76
     0
 77
     2
 78
   300
148
0.0
149
0.0
100
AcDbLayout
  1
Model
 70
     1
 71
     0
 10
0.0
 20
0.0
 11
12.0
 21
9.0
 12
0.0
 22
0.0
 32
0.0
 14
0.0
 24
0.0
 34
0.0
 15
0.0
 25
0.0
 35
0.0
146
0.0
 13
0.0
 23
0.0
 33
0.0
 16
1.0
 26
0.0
 36
0.0
 17
0.0
 27
1.0
 37
0.0
 76
     0
330
70
  0
MATERIAL
  5
19
102
{ACAD_XDICTIONARY
360
1A
102
}
102
{ACAD_REACTORS
330
10
102
}
330
10
100
AcDbMaterial
  1
ByBlock
 72
     0
 43
0.0208333333333333
 43
0.0
 43
0.0
 43
0.0
 43
0.0
 43
0.0208333333333333
 43
0.0
 43
0.0
 43
0.0
 43
0.0
 43
1.0
 43
0.0
 43
0.0
 43
0.0
 43
0.0
 43
1.0
 77
     0
 47
0.0208333333333333
 47
0.0
 47
0.0
 47
0.0
 47
0.0
 47
0.0208333333333333
 47
0.0
 47
0.0
 47
0.0
 47
0.0
 47
1.0
 47
0.0
 47
0.0
 47
0.0
 47
0.0
 47
1.0
171
     0
 49
0.0208333333333333
 49
0.0
 49
0.0
 49
0.0
 49
0.0
 49
0.0208333333333333
 49
0.0
 49
0.0
 49
0.0
 49
0.0
 49
1.0
 49
0.0
 49
0.0
 49
0.0
 49
0.0
 49
1.0
175
     0
142
0.0208333333333333
142
0.0
142
0.0
142
0.0
142
0.0
142
0.0208333333333333
142
0.0
142
0.0
142
0.0
142
0.0
142
1.0
142
0.0
142
0.0
142
0.0
142
0.0
142
1.0
179
     0
144
0.0208333333333333
144
0.0
144
0.0
144
0.0
144
0.0
144
0.0208333333333333
144
0.0
144
0.0
144
0.0
144
0.0
144
1.0
144
0.0
144
0.0
144
0.0
144
0.0
144
1.0
147
0.0208333333333333
147
0.0
147
0.0
147
0.0
147
0.0
147
0.0208333333333333
147
0.0
147
0.0
147
0.0
147
0.0
147
1.0
147
0.0
147
0.0
147
0.0
147
0.0
147
1.0
  0
MATERIAL
  5
11
102
{ACAD_XDICTIONARY
360
12
102
}
102
{ACAD_REACTORS
330
10
102
}
330
10
100
AcDbMaterial
  1
ByLayer
 72
     0
 43
0.0208333333333333
 43
0.0
 43
0.0
 43
0.0
 43
0.0
 43
0.0208333333333333
 43
0.0
 43
0.0
 43
0.0
 43
0.0
 43
1.0
 43
0.0
 43
0.0
 43
0.0
 43
0.0
 43
1.0
 77
     0
 47
0.0208333333333333
 47
0.0
 47
0.0
 47
0.0
 47
0.0
 47
0.0208333333333333
 47
0.0
 47
0.0
 47
0.0
 47
0.0
 47
1.0
 47
0.0
 47
0.0
 47
0.0
 47
0.0
 47
1.0
171
     0
 49
0.0208333333333333
 49
0.0
 49
0.0
 49
0.0
 49
0.0
 49
0.0208333333333333
 49
0.0
 49
0.0
 49
0.0
 49
0.0
 49
1.0
 49
0.0
 49
0.0
 49
0.0
 49
0.0
 49
1.0
175
     0
142
0.0208333333333333
142
0.0
142
0.0
142
0.0
142
0.0
142
0.0208333333333333
142
0.0
142
0.0
142
0.0
142
0.0
142
1.0
142
0.0
142
0.0
142
0.0
142
0.0
142
1.0
179
     0
144
0.0208333333333333
144
0.0
144
0.0
144
0.0
144
0.0
144
0.0208333333333333
144
0.0
144
0.0
144
0.0
144
0.0
144
1.0
144
0.0
144
0.0
144
0.0
144
0.0
144
1.0
147
0.0208333333333333
147
0.0
147
0.0
147
0.0
147
0.0
147
0.0208333333333333
147
0.0
147
0.0
147
0.0
147
0.0
147
1.0
147
0.0
147
0.0
147
0.0
147
0.0
147
1.0
  0
MATERIAL
  5
21
102
{ACAD_XDICTIONARY
360
22
102
}
102
{ACAD_REACTORS
330
10
102
}
330
10
100
AcDbMaterial
  1
Global
 72
     0
 43
0.0208333333333333
 43
0.0
 43
0.0
 43
0.0
 43
0.0
 43
0.0208333333333333
 43
0.0
 43
0.0
 43
0.0
 43
0.0
 43
1.0
 43
0.0
 43
0.0
 43
0.0
 43
0.0
 43
1.0
 77
     0
 47
0.0208333333333333
 47
0.0
 47
0.0
 47
0.0
 47
0.0
 47
0.0208333333333333
 47
0.0
 47
0.0
 47
0.0
 47
0.0
 47
1.0
 47
0.0
 47
0.0
 47
0.0
 47
0.0
 47
1.0
171
     0
 49
0.0208333333333333
 49
0.0
 49
0.0
 49
0.0
 49
0.0
 49
0.0208333333333333
 49
0.0
 49
0.0
 49
0.0
 49
0.0
 49
1.0
 49
0.0
 49
0.0
 49
0.0
 49
0.0
 49
1.0
175
     0
142
0.0208333333333333
142
0.0
142
0.0
142
0.0
142
0.0
142
0.0208333333333333
142
0.0
142
0.0
142
0.0
142
0.0
142
1.0
142
0.0
142
0.0
142
0.0
142
0.0
142
1.0
179
     0
144
0.0208333333333333
144
0.0
144
0.0
144
0.0
144
0.0
144
0.0208333333333333
144
0.0
144
0.0
144
0.0
144
0.0
144
1.0
144
0.0
144
0.0
144
0.0
144
0.0
144
1.0
147
0.0208333333333333
147
0.0
147
0.0
147
0.0
147
0.0
147
0.0208333333333333
147
0.0
147
0.0
147
0.0
147
0.0
147
1.0
147
0.0
147
0.0
147
0.0
147
0.0
147
1.0
  0
MLEADERSTYLE
  5
67
102
{ACAD_REACTORS
330
66
102
}
330
66
100
AcDbMLeaderStyle
179
     2
170
     2
171
     1
172
     0
 90
        2
 40
0.0
 41
0.0
173
     1
 91
-1056964608
340
5B
 92
       -2
290
     1
 42
0.09
291
     1
 43
0.36
  3
Standard
 44
0.18
300

342
55
174
     1
178
     6
175
     1
176
     0
 93
-1056964608
 45
0.18
292
     0
297
     0
 46
0.18
 94
-1056964608
 47
1.0
 49
1.0
140
1.0
293
     1
141
0.0
294
     1
177
     0
142
1.0
295
     1
296
     0
143
0.125
271
     0
272
     9
273
     9
298
     1
  0
MLINESTYLE
  5
60
102
{ACAD_REACTORS
330
5F
102
}
330
5F
100
AcDbMlineStyle
  2
STANDARD
 70
     0
  3

 62
   256
 51
90.0
 52
90.0
 71
     2
 49
0.5
 62
   256
  6
BYLAYER
 49
-0.5
 62
   256
  6
BYLAYER
  0
ACDBPLACEHOLDER
  5
F
102
{ACAD_REACTORS
330
E
102
}
330
E
  0
SCALE
  5
43
102
{ACAD_REACTORS
330
42
102
}
330
42
100
AcDbScale
 70
     0
300
1:1
140
1.0
141
1.0
290
     1
  0
SCALE
  5
44
102
{ACAD_REACTORS
330
42
102
}
330
42
100
AcDbScale
 70
     0
300
1/128" = 1'-0"
140
0.0078125
141
12.0
290
     0
  0
SCALE
  5
45
102
{ACAD_REACTORS
330
42
102
}
330
42
100
AcDbScale
 70
     0
300
1/64" = 1'-0"
140
0.015625
141
12.0
290
     0
  0
SCALE
  5
46
102
{ACAD_REACTORS
330
42
102
}
330
42
100
AcDbScale
 70
     0
300
1/32" = 1'-0"
140
0.03125
141
12.0
290
     0
  0
SCALE
  5
47
102
{ACAD_REACTORS
330
42
102
}
330
42
100
AcDbScale
 70
     0
300
1/16" = 1'-0"
140
0.0625
141
12.0
290
     0
  0
SCALE
  5
48
102
{ACAD_REACTORS
330
42
102
}
330
42
100
AcDbScale
 70
     0
300
3/32" = 1'-0"
140
0.09375
141
12.0
290
     0
  0
SCALE
  5
49
102
{ACAD_REACTORS
330
42
102
}
330
42
100
AcDbScale
 70
     0
300
1/8" = 1'-0"
140
0.125
141
12.0
290
     0
  0
SCALE
  5
4A
102
{ACAD_REACTORS
330
42
102
}
330
42
100
AcDbScale
 70
     0
300
3/16" = 1'-0"
140
0.1875
141
12.0
290
     0
  0
SCALE
  5
4B
102
{ACAD_REACTORS
330
42
102
}
330
42
100
AcDbScale
 70
     0
300
1/4" = 1'-0"
140
0.25
141
12.0
290
     0
  0
SCALE
  5
4C
102
{ACAD_REACTORS
330
42
102
}
330
42
100
AcDbScale
 70
     0
300
3/8" = 1'-0"
140
0.375
141
12.0
290
     0
  0
SCALE
  5
4D
102
{ACAD_REACTORS
330
42
102
}
330
42
100
AcDbScale
 70
     0
300
1/2" = 1'-0"
140
0.5
141
12.0
290
     0
  0
SCALE
  5
4E
102
{ACAD_REACTORS
330
42
102
}
330
42
100
AcDbScale
 70
     0
300
3/4" = 1'-0"
140
0.75
141
12.0
290
     0
  0
SCALE
  5
4F
102
{ACAD_REACTORS
330
42
102
}
330
42
100
AcDbScale
 70
     0
300
1" = 1'-0"
140
1.0
141
12.0
290
     0
  0
SCALE
  5
50
102
{ACAD_REACTORS
330
42
102
}
330
42
100
AcDbScale
 70
     0
300
1-1/2" = 1'-0"
140
1.5
141
12.0
290
     0
  0
SCALE
  5
51
102
{ACAD_REACTORS
330
42
102
}
330
42
100
AcDbScale
 70
     0
300
3" = 1'-0"
140
3.0
141
12.0
290
     0
  0
SCALE
  5
52
102
{ACAD_REACTORS
330
42
102
}
330
42
100
AcDbScale
 70
     0
300
6" = 1'-0"
140
6.0
141
12.0
290
     0
  0
SCALE
  5
53
102
{ACAD_REACTORS
330
42
102
}
330
42
100
AcDbScale
 70
     0
300
1'-0" = 1'-0"
140
12.0
141
12.0
290
     0
  0
ACDBSECTIONVIEWSTYLE
  5
69
102
{ACAD_XDICTIONARY
360
88D
102
}
102
{ACAD_REACTORS
330
68
102
}
330
68
100
AcDbModelDocViewStyle
 70
     0
  3
Imperial24
290
     0
100
AcDbSectionViewStyle
 70
     0
 71
     0
 90
       78
 71
     1
340
55
 62
   256
 40
0.24
340
0
340
0
 62
   256
 40
0.24
300
I, O, Q, S, X, Z
 40
0.48
 90
        3
 40
0.18
 90
        1
 71
     2
340
5D
 90
       25
 62
   256
340
5D
 90
       50
 62
   256
 40
0.24
 40
0.0
 40
0.24
 71
     3
340
55
 62
   256
 40
0.24
 90
        1
 40
0.75
 90
        1
300
%<\AcVar ViewType \f "%tc1">% %<\AcVar ViewSectionStartId>%-%<\AcVar ViewSectionEndId>%\PVARIA %<\AcVar ViewScale \f "%sn">%
 71
     4
 62
   256
 62
   257
300
ANSI31
 40
1.0
 90
        0
290
     0
290
     0
 90
        6
 40
0.0
 40
1.570796326794896
 40
0.2617993877991494
 40
1.308996938995747
 40
-0.2617993877991494
 40
1.832595714594046
  0
TABLESTYLE
  5
65
102
{ACAD_XDICTIONARY
360
88B
102
}
102
{ACAD_REACTORS
330
64
102
}
330
64
100
AcDbTableStyle
280
     0
  3
Standard
 70
     0
 71
     0
 40
0.06
 41
0.06
280
     0
281
     0
  7
Standard
140
0.18
170
     2
 62
     0
 63
     7
283
     0
 90
      512
 91
        0
  1

274
    -2
284
     1
 64
     0
275
    -2
285
     1
 65
     0
276
    -2
286
     1
 66
     0
277
    -2
287
     1
 67
     0
278
    -2
288
     1
 68
     0
279
    -2
289
     1
 69
     0
  7
Standard
140
0.25
170
     5
 62
     0
 63
     7
283
     0
 90
      512
 91
        0
  1

274
    -2
284
     1
 64
     0
275
    -2
285
     1
 65
     0
276
    -2
286
     1
 66
     0
277
    -2
287
     1
 67
     0
278
    -2
288
     1
 68
     0
279
    -2
289
     1
 69
     0
  7
Standard
140
0.18
170
     5
 62
     0
 63
     7
283
     0
 90
      512
 91
        0
  1

274
    -2
284
     1
 64
     0
275
    -2
285
     1
 65
     0
276
    -2
286
     1
 66
     0
277
    -2
287
     1
 67
     0
278
    -2
288
     1
 68
     0
279
    -2
289
     1
 69
     0
  0
VISUALSTYLE
  5
2F
102
{ACAD_REACTORS
330
29
102
}
330
29
100
AcDbVisualStyle
  2
2dWireframe
 70
     4
177
     3
291
     0
 70
    58
 90
        0
176
     1
 90
        2
176
     1
 90
        0
176
     1
 90
        0
176
     1
 40
0.6
176
     1
 40
30.0
176
     1
 62
     7
420
 16777215
176
     1
 90
        1
176
     1
 90
        4
176
     1
 62
     7
176
     1
 62
   257
176
     1
 90
        1
176
     1
 90
        1
176
     1
 40
1.0
176
     1
 90
        0
176
     1
 62
   257
176
     1
 40
1.0
176
     1
 90
        1
176
     1
 90
        6
176
     1
 90
        2
176
     1
 62
     7
176
     1
 90
        5
176
     1
 90
        0
176
     1
 90
        0
176
     1
290
     0
176
     1
 90
        1
176
     1
 40
0.0
176
     1
 90
        0
176
     1
290
     1
176
     1
290
     1
176
     1
290
     0
176
     1
290
     0
176
     1
290
     0
176
     1
290
     0
176
     1
290
     0
176
     1
290
     0
176
     1
290
     0
176
     1
 90
       50
176
     1
 40
0.0
176
     1
 40
1.0
176
     1
 90
        0
176
     1
 62
    18
420
        0
176
     1
 90
       50
176
     1
 90
        3
176
     1
 62
     5
420
      255
176
     1
290
     0
176
     1
 90
       50
176
     1
 90
       50
176
     1
 90
       50
176
     1
290
     0
176
     1
 90
       50
176
     1
 62
   256
176
     0
 40
1.0
176
     0
 90
        2
176
     1
  1
strokes_ogs.tif
176
     1
290
     0
176
     1
 40
1.0
176
     1
 40
1.0
176
     1
  0
VISUALSTYLE
  5
2E
102
{ACAD_REACTORS
330
29
102
}
330
29
100
AcDbVisualStyle
  2
Basic
 70
     7
177
     3
291
     1
 70
    58
 90
        1
176
     1
 90
        0
176
     1
 90
        1
176
     1
 90
        0
176
     1
 40
0.6
176
     1
 40
30.0
176
     1
 62
     7
420
 16777215
176
     1
 90
        0
176
     1
 90
        4
176
     1
 62
     7
176
     1
 62
   257
176
     1
 90
        1
176
     1
 90
        1
176
     1
 40
1.0
176
     1
 90
        8
176
     1
 62
     7
176
     1
 40
1.0
176
     1
 90
        1
176
     1
 90
        6
176
     1
 90
        2
176
     1
 62
     7
176
     1
 90
        5
176
     1
 90
        0
176
     1
 90
        0
176
     1
290
     0
176
     1
 90
        1
176
     1
 40
0.0
176
     1
 90
        0
176
     1
290
     0
176
     1
290
     1
176
     1
290
     1
176
     1
290
     0
176
     1
290
     0
176
     1
290
     0
176
     1
290
     0
176
     1
290
     0
176
     1
290
     0
176
     1
 90
       50
176
     1
 40
0.0
176
     1
 40
1.0
176
     1
 90
        0
176
     1
 62
    18
420
        0
176
     1
 90
       50
176
     1
 90
        3
176
     1
 62
     5
420
      255
176
     1
290
     0
176
     1
 90
       50
176
     1
 90
       50
176
     1
 90
       50
176
     1
290
     0
176
     1
 90
       50
176
     1
 62
   256
176
     0
 40
1.0
176
     0
 90
        2
176
     1
  1
strokes_ogs.tif
176
     1
290
     0
176
     1
 40
1.0
176
     1
 40
1.0
176
     1
  0
VISUALSTYLE
  5
35
102
{ACAD_REACTORS
330
29
102
}
330
29
100
AcDbVisualStyle
  2
Brighten
 70
    12
177
     3
291
     1
 70
    58
 90
        2
176
     1
 90
        2
176
     1
 90
        0
176
     1
 90
        0
176
     1
 40
0.6
176
     1
 40
30.0
176
     1
 62
     7
420
 16777215
176
     1
 90
        1
176
     1
 90
        4
176
     1
 62
     7
176
     1
 62
   257
176
     1
 90
        1
176
     1
 90
        1
176
     1
 40
1.0
176
     1
 90
        8
176
     1
 62
     7
176
     1
 40
1.0
176
     1
 90
        1
176
     1
 90
        6
176
     1
 90
        2
176
     1
 62
     7
176
     1
 90
        5
176
     1
 90
        0
176
     1
 90
        0
176
     1
290
     0
176
     1
 90
        1
176
     1
 40
50.0
176
     1
 90
        0
176
     1
290
     0
176
     1
290
     1
176
     1
290
     1
176
     1
290
     0
176
     1
290
     0
176
     1
290
     0
176
     1
290
     0
176
     1
290
     0
176
     1
290
     0
176
     1
 90
       50
176
     1
 40
0.0
176
     1
 40
1.0
176
     1
 90
        0
176
     1
 62
    18
420
        0
176
     1
 90
       50
176
     1
 90
        3
176
     1
 62
     5
420
      255
176
     1
290
     0
176
     1
 90
       50
176
     1
 90
       50
176
     1
 90
       50
176
     1
290
     0
176
     1
 90
       50
176
     1
 62
   256
176
     0
 40
1.0
176
     0
 90
        2
176
     1
  1
strokes_ogs.tif
176
     1
290
     0
176
     1
 40
1.0
176
     1
 40
1.0
176
     1
  0
VISUALSTYLE
  5
39
102
{ACAD_REACTORS
330
29
102
}
330
29
100
AcDbVisualStyle
  2
ColorChange
 70
    16
177
     3
291
     1
 70
    58
 90
        2
176
     1
 90
        2
176
     1
 90
        3
176
     1
 90
        0
176
     1
 40
0.6
176
     1
 40
30.0
176
     1
 62
     8
420
  8421504
176
     1
 90
        1
176
     1
 90
        4
176
     1
 62
     7
176
     1
 62
   257
176
     1
 90
        1
176
     1
 90
        1
176
     1
 40
1.0
176
     1
 90
        8
176
     1
 62
     8
420
  8421504
176
     1
 40
1.0
176
     1
 90
        1
176
     1
 90
        6
176
     1
 90
        2
176
     1
 62
     7
176
     1
 90
        5
176
     1
 90
        0
176
     1
 90
        0
176
     1
290
     0
176
     1
 90
        1
176
     1
 40
0.0
176
     1
 90
        0
176
     1
290
     0
176
     1
290
     1
176
     1
290
     1
176
     1
290
     0
176
     1
290
     0
176
     1
290
     0
176
     1
290
     0
176
     1
290
     0
176
     1
290
     0
176
     1
 90
       50
176
     1
 40
0.0
176
     1
 40
1.0
176
     1
 90
        0
176
     1
 62
    18
420
        0
176
     1
 90
       50
176
     1
 90
        3
176
     1
 62
     5
420
      255
176
     1
290
     0
176
     1
 90
       50
176
     1
 90
       50
176
     1
 90
       50
176
     1
290
     0
176
     1
 90
       50
176
     1
 62
   256
176
     0
 40
1.0
176
     0
 90
        2
176
     1
  1
strokes_ogs.tif
176
     1
290
     0
176
     1
 40
1.0
176
     1
 40
1.0
176
     1
  0
VISUALSTYLE
  5
32
102
{ACAD_REACTORS
330
29
102
}
330
29
100
AcDbVisualStyle
  2
Conceptual
 70
     9
177
     3
291
     0
 70
    58
 90
        3
176
     1
 90
        2
176
     1
 90
        0
176
     1
 90
        0
176
     1
 40
0.6
176
     1
 40
30.0
176
     1
 62
     7
420
 16777215
176
     1
 90
        2
176
     1
 90
        2
176
     1
 62
     7
176
     1
 62
   257
176
     1
 90
        1
176
     1
 90
        1
176
     1
 40
179.0
176
     1
 90
        8
176
     1
 62
     7
176
     1
 40
1.0
176
     1
 90
        1
176
     1
 90
        6
176
     1
 90
        2
176
     1
 62
     7
176
     1
 90
        3
176
     1
 90
        0
176
     1
 90
        0
176
     1
290
     0
176
     1
 90
        1
176
     1
 40
0.0
176
     1
 90
        0
176
     1
290
     0
176
     1
290
     1
176
     1
290
     1
176
     1
290
     0
176
     1
290
     0
176
     1
290
     0
176
     1
290
     0
176
     1
290
     0
176
     1
290
     0
176
     1
 90
       50
176
     1
 40
0.0
176
     1
 40
1.0
176
     1
 90
        0
176
     1
 62
    18
420
        0
176
     1
 90
       50
176
     1
 90
        3
176
     1
 62
     5
420
      255
176
     1
290
     0
176
     1
 90
       50
176
     1
 90
       50
176
     1
 90
       50
176
     1
290
     0
176
     1
 90
       50
176
     1
 62
   256
176
     0
 40
1.0
176
     0
 90
        2
176
     1
  1
strokes_ogs.tif
176
     1
290
     0
176
     1
 40
1.0
176
     1
 40
1.0
176
     1
  0
VISUALSTYLE
  5
34
102
{ACAD_REACTORS
330
29
102
}
330
29
100
AcDbVisualStyle
  2
Dim
 70
    11
177
     3
291
     1
 70
    58
 90
        2
176
     1
 90
        2
176
     1
 90
        0
176
     1
 90
        0
176
     1
 40
0.6
176
     1
 40
30.0
176
     1
 62
     7
420
 16777215
176
     1
 90
        1
176
     1
 90
        4
176
     1
 62
     7
176
     1
 62
   257
176
     1
 90
        1
176
     1
 90
        1
176
     1
 40
1.0
176
     1
 90
        8
176
     1
 62
     7
176
     1
 40
1.0
176
     1
 90
        1
176
     1
 90
        6
176
     1
 90
        2
176
     1
 62
     7
176
     1
 90
        5
176
     1
 90
        0
176
     1
 90
        0
176
     1
290
     0
176
     1
 90
        1
176
     1
 40
-50.0
176
     1
 90
        0
176
     1
290
     0
176
     1
290
     1
176
     1
290
     1
176
     1
290
     0
176
     1
290
     0
176
     1
290
     0
176
     1
290
     0
176
     1
290
     0
176
     1
290
     0
176
     1
 90
       50
176
     1
 40
0.0
176
     1
 40
1.0
176
     1
 90
        0
176
     1
 62
    18
420
        0
176
     1
 90
       50
176
     1
 90
        3
176
     1
 62
     5
420
      255
176
     1
290
     0
176
     1
 90
       50
176
     1
 90
       50
176
     1
 90
       50
176
     1
290
     0
176
     1
 90
       50
176
     1
 62
   256
176
     0
 40
1.0
176
     0
 90
        2
176
     1
  1
strokes_ogs.tif
176
     1
290
     0
176
     1
 40
1.0
176
     1
 40
1.0
176
     1
  0
VISUALSTYLE
  5
41
102
{ACAD_REACTORS
330
29
102
}
330
29
100
AcDbVisualStyle
  2
EdgeColorOff
 70
    22
177
     3
291
     1
 70
    58
 90
        2
176
     0
 90
        2
176
     0
 90
        0
176
     0
 90
        0
176
     0
 40
0.6
176
     0
 40
30.0
176
     0
 62
     7
420
 16777215
176
     0
 90
        1
176
     0
 90
        4
176
     0
 62
     7
176
     0
 62
   257
176
     0
 90
        1
176
     0
 90
        1
176
     0
 40
1.0
176
     0
 90
        8
176
     2
 62
     7
176
     0
 40
1.0
176
     0
 90
        1
176
     0
 90
        6
176
     0
 90
        2
176
     0
 62
     7
176
     0
 90
        5
176
     0
 90
        0
176
     0
 90
        0
176
     0
290
     0
176
     0
 90
        1
176
     0
 40
0.0
176
     0
 90
        0
176
     0
290
     0
176
     0
290
     1
176
     0
290
     1
176
     0
290
     0
176
     0
290
     0
176
     0
290
     0
176
     0
290
     0
176
     0
290
     0
176
     0
290
     0
176
     0
 90
       50
176
     0
 40
0.0
176
     0
 40
1.0
176
     0
 90
        0
176
     0
 62
    18
420
        0
176
     0
 90
       50
176
     0
 90
        3
176
     0
 62
     5
420
      255
176
     0
290
     0
176
     0
 90
       50
176
     0
 90
       50
176
     0
 90
       50
176
     0
290
     0
176
     0
 90
       50
176
     0
 62
   256
176
     0
 40
1.0
176
     0
 90
        2
176
     0
  1
strokes_ogs.tif
176
     0
290
     0
176
     0
 40
1.0
176
     0
 40
1.0
176
     0
  0
VISUALSTYLE
  5
38
102
{ACAD_REACTORS
330
29
102
}
330
29
100
AcDbVisualStyle
  2
Facepattern
 70
    15
177
     3
291
     1
 70
    58
 90
        2
176
     1
 90
        2
176
     1
 90
        0
176
     1
 90
        0
176
     1
 40
0.6
176
     1
 40
30.0
176
     1
 62
     7
420
 16777215
176
     1
 90
        1
176
     1
 90
        4
176
     1
 62
     7
176
     1
 62
   257
176
     1
 90
        1
176
     1
 90
        1
176
     1
 40
1.0
176
     1
 90
        8
176
     1
 62
     7
176
     1
 40
1.0
176
     1
 90
        1
176
     1
 90
        6
176
     1
 90
        2
176
     1
 62
     7
176
     1
 90
        5
176
     1
 90
        0
176
     1
 90
        0
176
     1
290
     0
176
     1
 90
        1
176
     1
 40
0.0
176
     1
 90
        0
176
     1
290
     0
176
     1
290
     1
176
     1
290
     1
176
     1
290
     0
176
     1
290
     0
176
     1
290
     0
176
     1
290
     0
176
     1
290
     0
176
     1
290
     0
176
     1
 90
       50
176
     1
 40
0.0
176
     1
 40
1.0
176
     1
 90
        0
176
     1
 62
    18
420
        0
176
     1
 90
       50
176
     1
 90
        3
176
     1
 62
     5
420
      255
176
     1
290
     0
176
     1
 90
       50
176
     1
 90
       50
176
     1
 90
       50
176
     1
290
     0
176
     1
 90
       50
176
     1
 62
   256
176
     0
 40
1.0
176
     0
 90
        2
176
     1
  1
strokes_ogs.tif
176
     1
290
     0
176
     1
 40
1.0
176
     1
 40
1.0
176
     1
  0
VISUALSTYLE
  5
2A
102
{ACAD_REACTORS
330
29
102
}
330
29
100
AcDbVisualStyle
  2
Flat
 70
     0
177
     3
291
     1
 70
    58
 90
        2
176
     1
 90
        1
176
     1
 90
        1
176
     1
 90
        2
176
     1
 40
0.6
176
     1
 40
30.0
176
     1
 62
     7
420
 16777215
176
     1
 90
        0
176
     1
 90
        0
176
     1
 62
     7
176
     1
 62
   257
176
     1
 90
        1
176
     1
 90
        1
176
     1
 40
1.0
176
     1
 90
        8
176
     1
 62
     7
176
     1
 40
1.0
176
     1
 90
        1
176
     1
 90
        6
176
     1
 90
        2
176
     1
 62
     7
176
     1
 90
        5
176
     1
 90
        0
176
     1
 90
        0
176
     1
290
     0
176
     1
 90
       13
176
     1
 40
0.0
176
     1
 90
        0
176
     1
290
     0
176
     1
290
     1
176
     1
290
     1
176
     1
290
     0
176
     1
290
     0
176
     1
290
     0
176
     1
290
     0
176
     1
290
     0
176
     1
290
     0
176
     1
 90
       50
176
     1
 40
0.0
176
     1
 40
1.0
176
     1
 90
        0
176
     1
 62
    18
420
        0
176
     1
 90
       50
176
     1
 90
        3
176
     1
 62
     5
420
      255
176
     1
290
     0
176
     1
 90
       50
176
     1
 90
       50
176
     1
 90
       50
176
     1
290
     0
176
     1
 90
       50
176
     1
 62
   256
176
     0
 40
1.0
176
     0
 90
        2
176
     1
  1
strokes_ogs.tif
176
     1
290
     0
176
     1
 40
1.0
176
     1
 40
1.0
176
     1
  0
VISUALSTYLE
  5
2B
102
{ACAD_REACTORS
330
29
102
}
330
29
100
AcDbVisualStyle
  2
FlatWithEdges
 70
     1
177
     3
291
     1
 70
    58
 90
        2
176
     1
 90
        1
176
     1
 90
        1
176
     1
 90
        2
176
     1
 40
0.6
176
     1
 40
30.0
176
     1
 62
     7
420
 16777215
176
     1
 90
        1
176
     1
 90
        0
176
     1
 62
     7
176
     1
 62
   257
176
     1
 90
        1
176
     1
 90
        1
176
     1
 40
1.0
176
     1
 90
        0
176
     1
 62
   257
176
     1
 40
1.0
176
     1
 90
        1
176
     1
 90
        6
176
     1
 90
        2
176
     1
 62
     7
176
     1
 90
        5
176
     1
 90
        0
176
     1
 90
        0
176
     1
290
     0
176
     1
 90
       13
176
     1
 40
0.0
176
     1
 90
        0
176
     1
290
     0
176
     1
290
     1
176
     1
290
     1
176
     1
290
     0
176
     1
290
     0
176
     1
290
     0
176
     1
290
     0
176
     1
290
     0
176
     1
290
     0
176
     1
 90
       50
176
     1
 40
0.0
176
     1
 40
1.0
176
     1
 90
        0
176
     1
 62
    18
420
        0
176
     1
 90
       50
176
     1
 90
        3
176
     1
 62
     5
420
      255
176
     1
290
     0
176
     1
 90
       50
176
     1
 90
       50
176
     1
 90
       50
176
     1
290
     0
176
     1
 90
       50
176
     1
 62
   256
176
     0
 40
1.0
176
     0
 90
        2
176
     1
  1
strokes_ogs.tif
176
     1
290
     0
176
     1
 40
1.0
176
     1
 40
1.0
176
     1
  0
VISUALSTYLE
  5
2C
102
{ACAD_REACTORS
330
29
102
}
330
29
100
AcDbVisualStyle
  2
Gouraud
 70
     2
177
     3
291
     1
 70
    58
 90
        2
176
     1
 90
        2
176
     1
 90
        1
176
     1
 90
        2
176
     1
 40
0.6
176
     1
 40
30.0
176
     1
 62
     7
420
 16777215
176
     1
 90
        0
176
     1
 90
        0
176
     1
 62
     7
176
     1
 62
   257
176
     1
 90
        1
176
     1
 90
        1
176
     1
 40
1.0
176
     1
 90
        0
176
     1
 62
     7
176
     1
 40
1.0
176
     1
 90
        1
176
     1
 90
        6
176
     1
 90
        2
176
     1
 62
     7
176
     1
 90
        5
176
     1
 90
        0
176
     1
 90
        0
176
     1
290
     0
176
     1
 90
       13
176
     1
 40
0.0
176
     1
 90
        0
176
     1
290
     0
176
     1
290
     1
176
     1
290
     1
176
     1
290
     0
176
     1
290
     0
176
     1
290
     0
176
     1
290
     0
176
     1
290
     0
176
     1
290
     0
176
     1
 90
       50
176
     1
 40
0.0
176
     1
 40
1.0
176
     1
 90
        0
176
     1
 62
    18
420
        0
176
     1
 90
       50
176
     1
 90
        3
176
     1
 62
     5
420
      255
176
     1
290
     0
176
     1
 90
       50
176
     1
 90
       50
176
     1
 90
       50
176
     1
290
     0
176
     1
 90
       50
176
     1
 62
   256
176
     0
 40
1.0
176
     0
 90
        2
176
     1
  1
strokes_ogs.tif
176
     1
290
     0
176
     1
 40
1.0
176
     1
 40
1.0
176
     1
  0
VISUALSTYLE
  5
2D
102
{ACAD_REACTORS
330
29
102
}
330
29
100
AcDbVisualStyle
  2
GouraudWithEdges
 70
     3
177
     3
291
     1
 70
    58
 90
        2
176
     1
 90
        2
176
     1
 90
        1
176
     1
 90
        2
176
     1
 40
0.6
176
     1
 40
30.0
176
     1
 62
     7
420
 16777215
176
     1
 90
        1
176
     1
 90
        0
176
     1
 62
     7
176
     1
 62
   257
176
     1
 90
        1
176
     1
 90
        1
176
     1
 40
1.0
176
     1
 90
        0
176
     1
 62
   257
176
     1
 40
1.0
176
     1
 90
        1
176
     1
 90
        6
176
     1
 90
        2
176
     1
 62
     7
176
     1
 90
        5
176
     1
 90
        0
176
     1
 90
        0
176
     1
290
     0
176
     1
 90
       13
176
     1
 40
0.0
176
     1
 90
        0
176
     1
290
     0
176
     1
290
     1
176
     1
290
     1
176
     1
290
     0
176
     1
290
     0
176
     1
290
     0
176
     1
290
     0
176
     1
290
     0
176
     1
290
     0
176
     1
 90
       50
176
     1
 40
0.0
176
     1
 40
1.0
176
     1
 90
        0
176
     1
 62
    18
420
        0
176
     1
 90
       50
176
     1
 90
        3
176
     1
 62
     5
420
      255
176
     1
290
     0
176
     1
 90
       50
176
     1
 90
       50
176
     1
 90
       50
176
     1
290
     0
176
     1
 90
       50
176
     1
 62
   256
176
     0
 40
1.0
176
     0
 90
        2
176
     1
  1
strokes_ogs.tif
176
     1
290
     0
176
     1
 40
1.0
176
     1
 40
1.0
176
     1
  0
VISUALSTYLE
  5
31
102
{ACAD_REACTORS
330
29
102
}
330
29
100
AcDbVisualStyle
  2
Hidden
 70
     6
177
     3
291
     0
 70
    58
 90
        1
176
     1
 90
        2
176
     1
 90
        2
176
     1
 90
        0
176
     1
 40
0.6
176
     1
 40
30.0
176
     1
 62
     7
420
 16777215
176
     1
 90
        2
176
     1
 90
        2
176
     1
 62
     7
176
     1
 62
   257
176
     1
 90
        2
176
     1
 90
        1
176
     1
 40
40.0
176
     1
 90
        0
176
     1
 62
   257
176
     1
 40
1.0
176
     1
 90
        1
176
     1
 90
        6
176
     1
 90
        2
176
     1
 62
     7
176
     1
 90
        3
176
     1
 90
        0
176
     1
 90
        0
176
     1
290
     0
176
     1
 90
        1
176
     1
 40
0.0
176
     1
 90
        0
176
     1
290
     0
176
     1
290
     1
176
     1
290
     1
176
     1
290
     0
176
     1
290
     0
176
     1
290
     0
176
     1
290
     0
176
     1
290
     0
176
     1
290
     0
176
     1
 90
       50
176
     1
 40
0.0
176
     1
 40
1.0
176
     1
 90
        0
176
     1
 62
    18
420
        0
176
     1
 90
       50
176
     1
 90
        3
176
     1
 62
     5
420
      255
176
     1
290
     0
176
     1
 90
       50
176
     1
 90
       50
176
     1
 90
       50
176
     1
290
     0
176
     1
 90
       50
176
     1
 62
   256
176
     0
 40
1.0
176
     0
 90
        2
176
     1
  1
strokes_ogs.tif
176
     1
290
     0
176
     1
 40
1.0
176
     1
 40
1.0
176
     1
  0
VISUALSTYLE
  5
3F
102
{ACAD_REACTORS
330
29
102
}
330
29
100
AcDbVisualStyle
  2
JitterOff
 70
    20
177
     3
291
     1
 70
    58
 90
        2
176
     0
 90
        2
176
     0
 90
        0
176
     0
 90
        0
176
     0
 40
0.6
176
     0
 40
30.0
176
     0
 62
     7
420
 16777215
176
     0
 90
        1
176
     0
 90
        4
176
     0
 62
     7
176
     0
 62
   257
176
     0
 90
        1
176
     0
 90
        1
176
     0
 40
1.0
176
     0
 90
       10
176
     2
 62
     7
176
     0
 40
1.0
176
     0
 90
        1
176
     0
 90
        6
176
     0
 90
        2
176
     0
 62
     7
176
     0
 90
        5
176
     0
 90
        0
176
     0
 90
        0
176
     0
290
     0
176
     0
 90
        1
176
     0
 40
0.0
176
     0
 90
        0
176
     0
290
     0
176
     0
290
     1
176
     0
290
     1
176
     0
290
     0
176
     0
290
     0
176
     0
290
     0
176
     0
290
     0
176
     0
290
     0
176
     0
290
     0
176
     0
 90
       50
176
     0
 40
0.0
176
     0
 40
1.0
176
     0
 90
        0
176
     0
 62
    18
420
        0
176
     0
 90
       50
176
     0
 90
        3
176
     0
 62
     5
420
      255
176
     0
290
     0
176
     0
 90
       50
176
     0
 90
       50
176
     0
 90
       50
176
     0
290
     0
176
     0
 90
       50
176
     0
 62
   256
176
     0
 40
1.0
176
     0
 90
        2
176
     0
  1
strokes_ogs.tif
176
     0
290
     0
176
     0
 40
1.0
176
     0
 40
1.0
176
     0
  0
VISUALSTYLE
  5
37
102
{ACAD_REACTORS
330
29
102
}
330
29
100
AcDbVisualStyle
  2
Linepattern
 70
    14
177
     3
291
     1
 70
    58
 90
        2
176
     1
 90
        2
176
     1
 90
        0
176
     1
 90
        0
176
     1
 40
0.6
176
     1
 40
30.0
176
     1
 62
     7
420
 16777215
176
     1
 90
        1
176
     1
 90
        4
176
     1
 62
     7
176
     1
 62
   257
176
     1
 90
        7
176
     1
 90
        7
176
     1
 40
1.0
176
     1
 90
        8
176
     1
 62
     7
176
     1
 40
1.0
176
     1
 90
        1
176
     1
 90
        6
176
     1
 90
        2
176
     1
 62
     7
176
     1
 90
        5
176
     1
 90
        0
176
     1
 90
        0
176
     1
290
     0
176
     1
 90
        1
176
     1
 40
0.0
176
     1
 90
        0
176
     1
290
     0
176
     1
290
     1
176
     1
290
     1
176
     1
290
     0
176
     1
290
     0
176
     1
290
     0
176
     1
290
     0
176
     1
290
     0
176
     1
290
     0
176
     1
 90
       50
176
     1
 40
0.0
176
     1
 40
1.0
176
     1
 90
        0
176
     1
 62
    18
420
        0
176
     1
 90
       50
176
     1
 90
        3
176
     1
 62
     5
420
      255
176
     1
290
     0
176
     1
 90
       50
176
     1
 90
       50
176
     1
 90
       50
176
     1
290
     0
176
     1
 90
       50
176
     1
 62
   256
176
     0
 40
1.0
176
     0
 90
        2
176
     1
  1
strokes_ogs.tif
176
     1
290
     0
176
     1
 40
1.0
176
     1
 40
1.0
176
     1
  0
VISUALSTYLE
  5
40
102
{ACAD_REACTORS
330
29
102
}
330
29
100
AcDbVisualStyle
  2
OverhangOff
 70
    21
177
     3
291
     1
 70
    58
 90
        2
176
     0
 90
        2
176
     0
 90
        0
176
     0
 90
        0
176
     0
 40
0.6
176
     0
 40
30.0
176
     0
 62
     7
420
 16777215
176
     0
 90
        1
176
     0
 90
        4
176
     0
 62
     7
176
     0
 62
   257
176
     0
 90
        1
176
     0
 90
        1
176
     0
 40
1.0
176
     0
 90
        9
176
     2
 62
     7
176
     0
 40
1.0
176
     0
 90
        1
176
     0
 90
        6
176
     0
 90
        2
176
     0
 62
     7
176
     0
 90
        5
176
     0
 90
        0
176
     0
 90
        0
176
     0
290
     0
176
     0
 90
        1
176
     0
 40
0.0
176
     0
 90
        0
176
     0
290
     0
176
     0
290
     1
176
     0
290
     1
176
     0
290
     0
176
     0
290
     0
176
     0
290
     0
176
     0
290
     0
176
     0
290
     0
176
     0
290
     0
176
     0
 90
       50
176
     0
 40
0.0
176
     0
 40
1.0
176
     0
 90
        0
176
     0
 62
    18
420
        0
176
     0
 90
       50
176
     0
 90
        3
176
     0
 62
     5
420
      255
176
     0
290
     0
176
     0
 90
       50
176
     0
 90
       50
176
     0
 90
       50
176
     0
290
     0
176
     0
 90
       50
176
     0
 62
   256
176
     0
 40
1.0
176
     0
 90
        2
176
     0
  1
strokes_ogs.tif
176
     0
290
     0
176
     0
 40
1.0
176
     0
 40
1.0
176
     0
  0
VISUALSTYLE
  5
33
102
{ACAD_REACTORS
330
29
102
}
330
29
100
AcDbVisualStyle
  2
Realistic
 70
     8
177
     3
291
     0
 70
    58
 90
        2
176
     1
 90
        3
176
     1
 90
        0
176
     1
 90
        2
176
     1
 40
0.6
176
     1
 40
30.0
176
     1
 62
     7
420
 16777215
176
     1
 90
        0
176
     1
 90
        0
176
     1
 62
     7
176
     1
 62
   257
176
     1
 90
        1
176
     1
 90
        1
176
     1
 40
1.0
176
     1
 90
        8
176
     1
 62
   257
176
     1
 40
1.0
176
     1
 90
        1
176
     1
 90
        6
176
     1
 90
        2
176
     1
 62
     7
176
     1
 90
        3
176
     1
 90
        0
176
     1
 90
        0
176
     1
290
     0
176
     1
 90
       13
176
     1
 40
0.0
176
     1
 90
        0
176
     1
290
     0
176
     1
290
     1
176
     1
290
     1
176
     1
290
     0
176
     1
290
     0
176
     1
290
     0
176
     1
290
     0
176
     1
290
     0
176
     1
290
     0
176
     1
 90
       50
176
     1
 40
0.0
176
     1
 40
1.0
176
     1
 90
        0
176
     1
 62
    18
420
        0
176
     1
 90
       50
176
     1
 90
        3
176
     1
 62
     5
420
      255
176
     1
290
     0
176
     1
 90
       50
176
     1
 90
       50
176
     1
 90
       50
176
     1
290
     0
176
     1
 90
       50
176
     1
 62
   256
176
     0
 40
1.0
176
     0
 90
        2
176
     1
  1
strokes_ogs.tif
176
     1
290
     0
176
     1
 40
1.0
176
     1
 40
1.0
176
     1
  0
VISUALSTYLE
  5
3E
102
{ACAD_REACTORS
330
29
102
}
330
29
100
AcDbVisualStyle
  2
Shaded
 70
    27
177
     3
291
     0
 70
    58
 90
        2
176
     1
 90
        2
176
     1
 90
        1
176
     1
 90
        2
176
     1
 40
0.6
176
     1
 40
30.0
176
     1
 62
     7
420
 16777215
176
     1
 90
        0
176
     1
 90
        4
176
     1
 62
     7
176
     1
 62
   257
176
     1
 90
        1
176
     1
 90
        1
176
     1
 40
1.0
176
     1
 90
        8
176
     1
 62
   257
176
     1
 40
1.0
176
     1
 90
        1
176
     1
 90
        6
176
     1
 90
        2
176
     1
 62
     8
420
  7895160
176
     1
 90
        3
176
     1
 90
        0
176
     1
 90
        0
176
     1
290
     0
176
     1
 90
        5
176
     1
 40
0.0
176
     1
 90
        0
176
     1
290
     0
176
     1
290
     1
176
     1
290
     1
176
     1
290
     0
176
     1
290
     0
176
     1
290
     0
176
     1
290
     0
176
     1
290
     0
176
     1
290
     0
176
     1
 90
       50
176
     1
 40
0.0
176
     1
 40
1.0
176
     1
 90
        0
176
     1
 62
    18
420
        0
176
     1
 90
       50
176
     1
 90
        3
176
     1
 62
     5
420
      255
176
     1
290
     0
176
     1
 90
       50
176
     1
 90
       50
176
     1
 90
       50
176
     1
290
     0
176
     1
 90
       50
176
     1
 62
   256
176
     0
 40
1.0
176
     0
 90
        2
176
     1
  1
strokes_ogs.tif
176
     1
290
     0
176
     1
 40
1.0
176
     1
 40
1.0
176
     1
  0
VISUALSTYLE
  5
3D
102
{ACAD_REACTORS
330
29
102
}
330
29
100
AcDbVisualStyle
  2
Shaded with edges
 70
    26
177
     3
291
     0
 70
    58
 90
        2
176
     1
 90
        2
176
     1
 90
        1
176
     1
 90
        2
176
     1
 40
0.6
176
     1
 40
30.0
176
     1
 62
     7
420
 16777215
176
     1
 90
        1
176
     1
 90
       10
176
     1
 62
     7
176
     1
 62
   257
176
     1
 90
        2
176
     1
 90
        1
176
     1
 40
1.0
176
     1
 90
        8
176
     1
 62
   257
176
     1
 40
1.0
176
     1
 90
        1
176
     1
 90
        6
176
     1
 90
        2
176
     1
 62
     7
176
     1
 90
        3
176
     1
 90
        0
176
     1
 90
        0
176
     1
290
     0
176
     1
 90
        5
176
     1
 40
0.0
176
     1
 90
        0
176
     1
290
     0
176
     1
290
     1
176
     1
290
     1
176
     1
290
     0
176
     1
290
     0
176
     1
290
     0
176
     1
290
     0
176
     1
290
     0
176
     1
290
     0
176
     1
 90
       50
176
     1
 40
0.0
176
     1
 40
1.0
176
     1
 90
        0
176
     1
 62
    18
420
        0
176
     1
 90
       50
176
     1
 90
        3
176
     1
 62
     5
420
      255
176
     1
290
     0
176
     1
 90
       50
176
     1
 90
       50
176
     1
 90
       50
176
     1
290
     0
176
     1
 90
       50
176
     1
 62
   256
176
     0
 40
1.0
176
     0
 90
        2
176
     1
  1
strokes_ogs.tif
176
     1
290
     0
176
     1
 40
1.0
176
     1
 40
1.0
176
     1
  0
VISUALSTYLE
  5
3A
102
{ACAD_REACTORS
330
29
102
}
330
29
100
AcDbVisualStyle
  2
Shades of Gray
 70
    23
177
     3
291
     0
 70
    58
 90
        2
176
     1
 90
        2
176
     1
 90
        3
176
     1
 90
        0
176
     1
 40
0.6
176
     1
 40
30.0
176
     1
 62
     7
420
 16777215
176
     1
 90
        2
176
     1
 90
        2
176
     1
 62
     7
176
     1
 62
     7
176
     1
 90
        1
176
     1
 90
        1
176
     1
 40
40.0
176
     1
 90
        8
176
     1
 62
     7
176
     1
 40
1.0
176
     1
 90
        1
176
     1
 90
        6
176
     1
 90
        2
176
     1
 62
     7
176
     1
 90
        3
176
     1
 90
        0
176
     1
 90
        0
176
     1
290
     0
176
     1
 90
        1
176
     1
 40
0.0
176
     1
 90
        0
176
     1
290
     0
176
     1
290
     1
176
     1
290
     1
176
     1
290
     0
176
     1
290
     0
176
     1
290
     0
176
     1
290
     0
176
     1
290
     0
176
     1
290
     0
176
     1
 90
       50
176
     1
 40
0.0
176
     1
 40
1.0
176
     1
 90
        0
176
     1
 62
    18
420
        0
176
     1
 90
       50
176
     1
 90
        3
176
     1
 62
     5
420
      255
176
     1
290
     0
176
     1
 90
       50
176
     1
 90
       50
176
     1
 90
       50
176
     1
290
     0
176
     1
 90
       50
176
     1
 62
   256
176
     0
 40
1.0
176
     0
 90
        2
176
     1
  1
strokes_ogs.tif
176
     1
290
     0
176
     1
 40
1.0
176
     1
 40
1.0
176
     1
  0
VISUALSTYLE
  5
3B
102
{ACAD_REACTORS
330
29
102
}
330
29
100
AcDbVisualStyle
  2
Sketchy
 70
    24
177
     3
291
     0
 70
    58
 90
        1
176
     1
 90
        2
176
     1
 90
        2
176
     1
 90
        0
176
     1
 40
0.6
176
     1
 40
30.0
176
     1
 62
     7
420
 16777215
176
     1
 90
        2
176
     1
 90
        2
176
     1
 62
     7
176
     1
 62
     7
176
     1
 90
        1
176
     1
 90
        1
176
     1
 40
40.0
176
     1
 90
       11
176
     1
 62
     7
176
     1
 40
1.0
176
     1
 90
        1
176
     1
 90
        6
176
     1
 90
        2
176
     1
 62
     7
176
     1
 90
        6
176
     1
 90
        0
176
     1
 90
        0
176
     1
290
     0
176
     1
 90
        1
176
     1
 40
0.0
176
     1
 90
        0
176
     1
290
     0
176
     1
290
     1
176
     1
290
     1
176
     1
290
     0
176
     1
290
     0
176
     1
290
     0
176
     1
290
     0
176
     1
290
     0
176
     1
290
     0
176
     1
 90
       50
176
     1
 40
0.0
176
     1
 40
1.0
176
     1
 90
        0
176
     1
 62
    18
420
        0
176
     1
 90
       50
176
     1
 90
        3
176
     1
 62
     5
420
      255
176
     1
290
     0
176
     1
 90
       50
176
     1
 90
       50
176
     1
 90
       50
176
     1
290
     0
176
     1
 90
       50
176
     1
 62
   256
176
     0
 40
1.0
176
     0
 90
        2
176
     1
  1
strokes_ogs.tif
176
     1
290
     0
176
     1
 40
1.0
176
     1
 40
1.0
176
     1
  0
VISUALSTYLE
  5
36
102
{ACAD_REACTORS
330
29
102
}
330
29
100
AcDbVisualStyle
  2
Thicken
 70
    13
177
     3
291
     1
 70
    58
 90
        2
176
     1
 90
        2
176
     1
 90
        0
176
     1
 90
        0
176
     1
 40
0.6
176
     1
 40
30.0
176
     1
 62
     7
420
 16777215
176
     1
 90
        1
176
     1
 90
        4
176
     1
 62
     7
176
     1
 62
   257
176
     1
 90
        1
176
     1
 90
        1
176
     1
 40
1.0
176
     1
 90
       12
176
     1
 62
     7
176
     1
 40
1.0
176
     1
 90
        1
176
     1
 90
        6
176
     1
 90
        2
176
     1
 62
     7
176
     1
 90
        5
176
     1
 90
        0
176
     1
 90
        0
176
     1
290
     0
176
     1
 90
        1
176
     1
 40
0.0
176
     1
 90
        0
176
     1
290
     0
176
     1
290
     1
176
     1
290
     1
176
     1
290
     0
176
     1
290
     0
176
     1
290
     0
176
     1
290
     0
176
     1
290
     0
176
     1
290
     0
176
     1
 90
       50
176
     1
 40
0.0
176
     1
 40
1.0
176
     1
 90
        0
176
     1
 62
    18
420
        0
176
     1
 90
       50
176
     1
 90
        3
176
     1
 62
     5
420
      255
176
     1
290
     0
176
     1
 90
       50
176
     1
 90
       50
176
     1
 90
       50
176
     1
290
     0
176
     1
 90
       50
176
     1
 62
   256
176
     0
 40
1.0
176
     0
 90
        2
176
     1
  1
strokes_ogs.tif
176
     1
290
     0
176
     1
 40
1.0
176
     1
 40
1.0
176
     1
  0
VISUALSTYLE
  5
30
102
{ACAD_REACTORS
330
29
102
}
330
29
100
AcDbVisualStyle
  2
Wireframe
 70
     5
177
     3
291
     0
 70
    58
 90
        0
176
     1
 90
        2
176
     1
 90
        0
176
     1
 90
        0
176
     1
 40
0.6
176
     1
 40
30.0
176
     1
 62
     7
420
 16777215
176
     1
 90
        1
176
     1
 90
        4
176
     1
 62
     7
176
     1
 62
   257
176
     1
 90
        1
176
     1
 90
        1
176
     1
 40
1.0
176
     1
 90
        0
176
     1
 62
   257
176
     1
 40
1.0
176
     1
 90
        1
176
     1
 90
        6
176
     1
 90
        2
176
     1
 62
     7
176
     1
 90
        3
176
     1
 90
        0
176
     1
 90
        0
176
     1
290
     0
176
     1
 90
        1
176
     1
 40
0.0
176
     1
 90
        0
176
     1
290
     0
176
     1
290
     1
176
     1
290
     1
176
     1
290
     0
176
     1
290
     0
176
     1
290
     0
176
     1
290
     0
176
     1
290
     0
176
     1
290
     0
176
     1
 90
       50
176
     1
 40
0.0
176
     1
 40
1.0
176
     1
 90
        0
176
     1
 62
    18
420
        0
176
     1
 90
       50
176
     1
 90
        3
176
     1
 62
     5
420
      255
176
     1
290
     0
176
     1
 90
       50
176
     1
 90
       50
176
     1
 90
       50
176
     1
290
     0
176
     1
 90
       50
176
     1
 62
   256
176
     0
 40
1.0
176
     0
 90
        2
176
     1
  1
strokes_ogs.tif
176
     1
290
     0
176
     1
 40
1.0
176
     1
 40
1.0
176
     1
  0
VISUALSTYLE
  5
3C
102
{ACAD_REACTORS
330
29
102
}
330
29
100
AcDbVisualStyle
  2
X-Ray
 70
    25
177
     3
291
     0
 70
    58
 90
        2
176
     1
 90
        2
176
     1
 90
        1
176
     1
 90
        1
176
     1
 40
0.5
176
     1
 40
30.0
176
     1
 62
     7
420
 16777215
176
     1
 90
        1
176
     1
 90
        0
176
     1
 62
     7
176
     1
 62
   257
176
     1
 90
        1
176
     1
 90
        1
176
     1
 40
1.0
176
     1
 90
        8
176
     1
 62
     7
176
     1
 40
1.0
176
     1
 90
        1
176
     1
 90
        6
176
     1
 90
        2
176
     1
 62
     7
176
     1
 90
        3
176
     1
 90
        0
176
     1
 90
        0
176
     1
290
     0
176
     1
 90
       13
176
     1
 40
0.0
176
     1
 90
        0
176
     1
290
     0
176
     1
290
     1
176
     1
290
     1
176
     1
290
     0
176
     1
290
     0
176
     1
290
     0
176
     1
290
     0
176
     1
290
     0
176
     1
290
     0
176
     1
 90
       50
176
     1
 40
0.0
176
     1
 40
1.0
176
     1
 90
        0
176
     1
 62
    18
420
        0
176
     1
 90
       50
176
     1
 90
        3
176
     1
 62
     5
420
      255
176
     1
290
     0
176
     1
 90
       50
176
     1
 90
       50
176
     1
 90
       50
176
     1
290
     0
176
     1
 90
       50
176
     1
 62
   256
176
     0
 40
1.0
176
     0
 90
        2
176
     1
  1
strokes_ogs.tif
176
     1
290
     0
176
     1
 40
1.0
176
     1
 40
1.0
176
     1
  0
DICTIONARYVAR
  5
88A
102
{ACAD_REACTORS
330
885
102
}
330
885
100
DictionaryVariables
280
     0
  1
1:1
  0
DICTIONARYVAR
  5
887
102
{ACAD_REACTORS
330
885
102
}
330
885
100
DictionaryVariables
280
     0
  1
STANDARD
  0
DICTIONARYVAR
  5
886
102
{ACAD_REACTORS
330
885
102
}
330
885
100
DictionaryVariables
280
     0
  1
STANDARD
  0
DICTIONARYVAR
  5
888
102
{ACAD_REACTORS
330
885
102
}
330
885
100
DictionaryVariables
280
     0
  1
Imperial24
  0
DICTIONARYVAR
  5
889
102
{ACAD_REACTORS
330
885
102
}
330
885
100
DictionaryVariables
280
     0
  1
Imperial24
  0
DICTIONARY
  5
88F
330
6B
100
AcDbDictionary
280
     1
281
     1
  3
ACAD_XREC_ROUNDTRIP
360
890
  0
DICTIONARY
  5
1A
330
19
100
AcDbDictionary
280
     1
281
     1
  3
BUMPTILE
360
1C
  3
DIFFUSETILE
360
1B
  3
OPACITYTILE
360
1F
  3
REFLECTIONTILE
360
1E
  3
REFRACTIONTILE
360
20
  3
SPECULARTILE
360
1D
  0
DICTIONARY
  5
12
330
11
100
AcDbDictionary
280
     1
281
     1
  3
BUMPTILE
360
14
  3
DIFFUSETILE
360
13
  3
FBXASSET
360
127
  3
OPACITYTILE
360
17
  3
REFLECTIONTILE
360
16
  3
REFRACTIONTILE
360
18
  3
SPECULARTILE
360
15
  0
DICTIONARY
  5
22
330
21
100
AcDbDictionary
280
     1
281
     1
  3
BUMPTILE
360
24
  3
DIFFUSETILE
360
23
  3
OPACITYTILE
360
27
  3
REFLECTIONTILE
360
26
  3
REFRACTIONTILE
360
28
  3
SPECULARTILE
360
25
  0
DICTIONARY
  5
88D
330
69
100
AcDbDictionary
280
     1
281
     1
  3
ACAD_XREC_ROUNDTRIP
360
88E
  0
DICTIONARY
  5
88B
330
65
100
AcDbDictionary
280
     1
281
     1
  3
ACAD_ROUNDTRIP_2008_TABLESTYLE_CELLSTYLEMAP
360
88C
  0
XRECORD
  5
890
102
{ACAD_REACTORS
330
88F
102
}
330
88F
100
AcDbXrecord
280
     1
102
DISPLAYNAME
  1
Imperial24
102
FLAGS
 90
        0
  0
XRECORD
  5
1C
102
{ACAD_REACTORS
330
1A
102
}
330
1A
100
AcDbXrecord
280
     1
270
     1
271
     1
  0
XRECORD
  5
1B
102
{ACAD_REACTORS
330
1A
102
}
330
1A
100
AcDbXrecord
280
     1
270
     1
271
     1
  0
XRECORD
  5
1F
102
{ACAD_REACTORS
330
1A
102
}
330
1A
100
AcDbXrecord
280
     1
270
     1
271
     1
  0
XRECORD
  5
1E
102
{ACAD_REACTORS
330
1A
102
}
330
1A
100
AcDbXrecord
280
     1
270
     1
271
     1
  0
XRECORD
  5
20
102
{ACAD_REACTORS
330
1A
102
}
330
1A
100
AcDbXrecord
280
     1
270
     1
271
     1
  0
XRECORD
  5
1D
102
{ACAD_REACTORS
330
1A
102
}
330
1A
100
AcDbXrecord
280
     1
270
     1
271
     1
  0
XRECORD
  5
14
102
{ACAD_REACTORS
330
12
102
}
330
12
100
AcDbXrecord
280
     1
270
     1
271
     1
  0
XRECORD
  5
13
102
{ACAD_REACTORS
330
12
102
}
330
12
100
AcDbXrecord
280
     1
270
     1
271
     1
  0
XRECORD
  5
127
102
{ACAD_REACTORS
330
12
102
}
330
12
100
AcDbXrecord
280
     1
 70
     1
 90
1959938040
 71
     1
  1
3C9A698B-4F1C-45B2-A805-33677726909B
311
504B0304140006080800615B7747438AFB58FA000000A80100004F00000037434134313342432D303837422D344442302D414539312D4445383345313546373934322F4173736574446174612F446566696E6974696F6E4974657261746F7250726F706572746965732E62696EBD50B14EC33010352C888181A13B03ABB11D
311
DB718C8490ED242CB0940F402698365292567122D4AD237F0D6735FC0227BDBBD3F3DDBD277F23847E9680169D018E90AFA03E85218C6DF3DA6C43EFD10530F6F0EC0F61BC85D6489B5BEA0A5C563CC7A22E35B6CC65584A6A8D169C952E3B87B9B456864F3F7753BAF9D2C626749D1FC26E8ED7402C2237BD9F40CC777769
311
E912A57C0420F4F710D3A5CDC95272F905F01FFBFB471F63981E887246306E1DA685B258949662536906FE0A5E31592B2D32B20E71378F4D88843B6D725DC064CD1C16D266D8145462CE73A554966BAA2D99B6E96B56A034F7EF836F3B42C962E16D3F6C80FFAFF805504B0304140006080800615B7747DF18245421010000
311
300200004500000037434134313342432D303837422D344442302D414539312D4445383345313546373934322F4173736574446174612F496E7374616E636550726F706572746965732E62696EEB606060F80F0540260323103700495E20ED9E9A975A94991C9C9C919A9BA802143076B67434B3B470D235713374D6353175
311
32D275B43030D53536363337373732B334B074624768046B313471713532B5D435353131D635313332D475727372D135343736703673061AE86A09D401B6974133A6FFD0578D2BF6409A0928D600C4303E9806F281E0833D443503838003830058084CA83820D85859408D10006760550614842BF8C00CE435003154EB0328
311
CD0314C204A07044C8C00DC15098B2D301430C4500532BC8680D24351FEC59803C506CF10171707962497286AE5351625E4A6A0A480648E725572AD919DAE827E5E7E7D8D9E8E7E5A7A422A8F4A2FCD2023B1B30A59097989B6AAB949C9F97979A5C929997AE04548745414A6A412A00504B0304140006080800615B774788
311
E57597CD3F0000904100006B00000037434134313342432D303837422D344442302D414539312D4445383345313546373934322F5265736F75726365732F33433941363938422D344631432D343542322D413830352D3333363737373236393039422F7468756D626E61696C2F302F67656E657269635F706E67355B773CD4
311
FF1FBF73E71C0E67EF7576C9DEF3EC995D46C6A1EC5046649CBDF79E192942562825CE965D8A868C2842C8DE9FDFD1F7E7F138F7078FCF6B3F5FCFD7EBFDFEC41B196891913091804020321D6D7513FC77D8C5070EC3FFEE51B21F068154CC75D455CC028A3EA68992803810109FDDE5D5CEC5521B28A1B422BF80741695D5
311
B529DA1C2D058AD2388BDA9F476F7C2CADC939304173DBF48A452BF8A700C0C70C3D121C1AA15A5270C22E2B9E28763651F7DA0D12CE11077B2ECD0D560B5E3DE2368B1E65C5E1C87384A4CC5F2D9FB8BE39E9B77C753783A37998F5CEF1B4FEE553463245C9712270880DF339E0B882A6BA713D865F6F384C842D440934EF
311
264F4A304F8DE4EEFA1E2BF5E2D91F5ADD9613D6E31DDB33ED31DB1D7916CAF091286EA3D31B9CFECB78BB0060245B943C4C040119FF780A74DD308BA9D028678674EB5504ECF284EE814DAED07440BAF649BE4B55DA2890F4D73E2D489A59EE54FDB0A85B59F2F52C4858A02705C4815A792B0C4A996A2023ECB195073E11
311
5E3E3647F64243A8338F2000BCB58DA5692C7E7C3D413F963FEDF3CF00FBB0F831A9D51360FECA43819F527B89FA260EB63C5DA676830AA3626A3693B23F1A17A0DFFCE3EE164E31B5365EDF0C89EF64D8E38AB0BA9A1117D7C3A0EC44F44F4023095E80BA610DE336D0F99593A88BFC5306E72DF98F7FD132ED95878DF296
311
4EA7E43071359FD83B2BDF9C6B5BDF768F0F3C0FC351199526F53D9460A34511F75D1B63E488178569472C91A94497807A3FD4A390C6558F26D416365C3656DE6E769DA9D8FC73774E1709812842DD8EF96AED1960F79D21B395CDDFE6F92CB4EB962A4668C76990E2EF29798C8941D67DA50F4A5F947872460F1F6FDB794E
311
8A29FD7AC0C0D6E0714339CE258FB17AE8535221E3464A10F29A0BE5EEECEFC5675926A89F49EB14E5711894F6586DB5754EB4D5DA9C6437EBA57DB97A24F8B8A8DB295FFD73266CF57E82694DF5166DDF93573AFE9C9C5EB05F8FEF8E89E0A8917B0B3724DB7BEBB53252581EFC3E38166BA131A3A5B42FE2AD00A769BBFA
311
4458D2DE7822F8C4F63D0B8E21B285AE13325F3410A435C648C9D91FDEB109E73CEDA7BC796961AF79175E1A3CE4C5E8B0D009B0C9E29EFD98BC8E97554E3D8D838424E270F7685226E5AC268E021EDE3522D583E8F20C0BDE2959EF5BBFEEDAB32FE9A3ED0E39F211A86AA9DEBFC68182EDED132AB8BB794442D2D7EA9F4D
311
8BFF52BC4D55BB165124EE90A42D101E67BBBB292FFB4F66DE5BF2300E44546757DA7CEF8932BFC9F92A0707953491A55C5A5ACEDABD9FA1AEA01BAC3DC5A24E22E7C47213493996EFBC369D086ED9397C9BA6C7F9855C7BD5E15BFC8C53DB3D2A4C5901A57ACD2FBDF4D1676E95338B2C2BCE65FDA4C64F5FEFDC7D9CA5AA
311
1FCF11E193F2FDABF0F4916BF13FB916A224380E6462A9815F2300DC49CC4DF8D055CEF76462F4B7A7ACA7365C2707891370BC1D0AA6203C44CCAB47084FEC057F27FFCD57F89B8B9852459798A675C66BD7CE572CAF71FF7E6D7ECF7BF62CAB7B3F1107DCD04DC55A3F9961700286141C94A4F771FEB2BCDA2DDEE0CB0BAE
311
402FF1DB0100F8E475DFFFC074DDB4498AB7D186A7654DDB1CB680D703D47CEB4E72F8CB13D86A4AA68116E26387B93FD6738779B34FEDB8E517EDF2BAF28D9BE93A1D3A164320E07D42E514725C29515FF361754213EDE06B079A2E99EB1CA82A02019EADEEB87B9AF005BD04BBCECB14AACD6B24EFBE482194A97DD32400
311
685FF1FEF1544D1B14EFB1E7F08E6D2CD2AF52DE757F35F5E62332EE88EA26417AD5C3E0E319D68F25414E6D672BD4522B278C57D18F0113921C71D96527E091F00CEB15AE23D24667369BD3CEFA10C7549D930890BA4366F4EBC55F01F746109F98ABCDD5A3EE06619C6AD78AB33E48E4C9BD21BF7478B385EC05C4F8987E
311
2C1BFA0A60EBEDAA0AE0B015C2720ECE180FB6F2DEFBEB822D96338C9B63822183BBF52FB664A7AE57003AABCE512BF77E7E31BDA2E739AC4C131657DDFE5225E900FB56CC01CDE808FA4A9C9DA16AC679656BB64796283D89812B8F91136AE18EE5EBBAF47A73BE3C153EB5D4CD491B4BFB4FE690A4CF9ABA08C0D8AA6422
311
0C438C96EA6CA80B58FE5761E697B3A292EB9FBDA502FA863E49FE694ADDFFF9D62C520BDD1A22014147A0903A05B9B729F54272EF83931FEEC057BFF8C8055C279EAC5C0011804828734024F6CFA319C9CC6867C727184465CD9BB7ED386AFFD96B294A85E3802FAE47244602D8273615952B98C4F23F7EAE4463D9D638EE
311
E374A20959E0FE519C4CFB0FBFE5DD80C2AA3F9DB961D1BDE57E67C9BB47B77FDD74EE3094F5DBBE3EBC1FBDB7393F5116263009E2EFE1AF9A221B2AE234C902BF70E9F280ED23E73908361565964333A3F01D0B006AF32FB21AA1316744B489D5A198E85299241735BE559675130955C902A8ED761FC0DBE337A9F91919AF
311
5CE32AF902ADF9AB2615E00E8A94586BA1A90839B61832FF1BFB76D2EFADE6DB1BA04CCAD3DA649E7E2A0219F592E22F2AD54847EEA8E42271011E9074F8F3DD9FBA6CDF88FFC9FC7E811AD1CA8F4557CE4AFC7BBEDCF0114A48689F20A584520C74DA8127124B767E2FB91A6B186246727BE63C9445BAE02088D58B8EFDC0
311
F1072407CD9B89A13F6303B4A928F593AD489B58E6869325790ADC406036C591729FE14021F94B7796BB11848D463536A092A26F077F94639F7CEEE2A724C66EC885F4A24F8B8A0AC321F8FD149BA529460FAA34E4663C02D41FDF80BCA222D42F0ABFF8490F4FA74C673807C2051D8E467B47B616072860069A9A303ABA9B
311
319D58404461401B0A0F9BE5E1E151C14BC33B32ABE03DDE91708DFAEB15E7C0D593C86BB7D7EC17BE56E57975F077BFD5525F3A1A361D584A75E08CF29FC7B44B2B3085014F3A5A14517377C3F6B8F37E59514C3B12F8AACDEDDA4DFC49BE5710101534CD6FB6DE15B50F11A09472AABA727F0C49D9CB906B158030065F48
311
EB3625E010CEC1D511D0053474B11E6A4F01C0D6EF1BED3A944FDEC70E0DDCDC756C86545910E0DAE3BE3AA9A404574C2995CD5CAF9549226BC94B4F4F0F5F9086F418F6B32346464610D8BC7391D3C3A3CCF04CFC1FB2A3A3170E369511868F14EEA4E5E438CC73DB1F3248AA94B6B2FF33B222FF3D1E7BF146CAD2297701
311
58063BCE4F5391964DF62F7E52A7BE0EEA829C9E13C4C147D6F93FE59E111DAB5E4594D6F3CD1AD375EE039930EFE5AF2BB2D41C83C7DABD8C659BAFBE8FAB392CA634F3D15C1D945DB4588D2B0824A4EC928AAC565557CA2F0DAA588CA5BE30B3A8004F7BF005E96CBF891D7F18112A3619FDF530DC8AA64954258E181178
311
9B5189B49B4EB53F5F89F7D37523894F3EB57B373763C91E502F52CC99EB7BDDF933FC324C4FFC2561DFFA7339FAFDD0A4BFBE6D3A8FF9ED1FC49898139864602458968913181918F719CCF5A68B2EE9C1FF050E34E63107003B8120FA982C21B30A874E4F5E4B38D5A8290C4B8D9BE48A0BE31EA995BDC37AC6DE90BA17D2
311
59DEF53605D55922FEB1855D915B659FBEB350EE0DFB2F9F766E1C84CC8964B75D08667445EAB966015F63A18A9E0A325C1B3DC628C0D3CB60F767FA93CC65F25458BD23C3B312716E5F40E5858AC06EBA9AB14F95DB99147B832069201541D09A0D856E12C629CF32683760EE855537D1901988D5EBC156676C7DD51D7207
311
CF3267AF1D76C2AD867315E44618015313A98B19941C696FED3461CAA9B5415F918556D7802EDACEFD6B2E45853A9735DFC9DBF7E440F9319F8B6805A973BCCDC76C069A9144E51F187EDCC12FC31B5DEAAF0A76137199B106EC84ADA6B6EE697D4E6A96E007417F4E880E8B1E89B4BCE9D81EF611E2ED8F0C1A6C25F620FA
311
FAAB656A7C42D464880E8AFAB0E0FC8EA38CA9A8AEEAEE3E4648BA4680270A89743CDD3E6C6CBF34B7B640EFA285ABC7EA0A1E28F3CC963D114A80123EE66D0AF7D5380EB41909B605AB4765B709B808590458157E69BA1378FEC4B48CAF6A730E3BE3C5EF2DD1A5EAF94B1DDE50CEB55DDFD7EE9A16747FA4B223359FB1FC
311
C69E1194892BABB93A1D5C4E807AC0EA2E30180811E77A2291F6E7F7FAA5E0F60215BC6024E48DE436C511F0628B8CA189982D4D83CCA17D305A7E923C37941CFDFDCD93ACAF735EF5F0E61BBD3E6C41A59B242790D3A3BAC7064DCD89AA2E37214EC839820949D5CAA31E240D2948E48F690298974A96BA9A8432BC90F507
311
1D6537C9666EA4564796B7AFFFA548077BEEA75F63083435074BA182F3699557397F71548383FDA8CA34D99B981E72835ECDA5DDDC151315173D05A21F651AAF8524E88209E2E7A737ED1045800CE3390050BCFB8BE588DF111617874C62575039CA588EEFDEFEFE319B739DE2EDC147092A262611E159650E787917885EF0
311
8F1F51B8F2D8A71D60B58B190FEF9541A1BE94BC19FEA50784DA1419FE4B0FB51B8D36B5FF8E1286FD8AF42B91E59A5F1CC4D60174E764045FD8C57B18209B217F89A62252BD20BE0E63E12B8E8F029FE19E0E8D0870F58721A557082250D5424F7909369376E41666C0EE77CD87CB283F661D5FB6D0DA023CB67320A20DC7
311
BE661E9E1BFE5463085C557DA1FF9BE835733766C3D139F2CF9E2208873AD0EB4814DE9E6BF2CAF81614D4D43906ED1C05A3265CABBFE192770FC2F64F940CB6B17B5F166F133C9AEEAD2641807C3E69515171DD74C4A85311513D6EC9530B3B601B6BA3EBFF3B5C3D2F7D69765141E345F75433953D013ADDF8F6AA7DC3F4
311
A7563FE5C7D367937E2900D7EAD0F9FC9A4A1A9B5BDF1FEF08532660C01C5D6DE22199AA774383E306DAB87E301ABB7D213887F9869D4942D0D71E94B27EDF216A318BD488D45DF84529EF575AF3C3938C0AAA0215B01994153E2054A0B894DA5C784980633AAD48576957CF4AEAEAFADC7C587368551C73DBE1E57C58AC71
311
3303A8BFC258BD04B51724459FF9E24C03A81E0E0679CEB9B348C0DC998FEB9C6D6EFA77D247CC8F92D3848599ED89A23218D0636465AD1CEEB7DC140D7426F83491C4E8E8281C2FB35240918FFECE880CA2A42D70E8B20B34DF5221C7DB0CF90ECCB9C745B37A47E9B716FF7A97B7A252C1F3814DC7B1E1A7F72B8751D524
311
EF7CAE45B0C73B3BE7D08ED39781B380DDFC9AA4A4749C9493DB5BAD07A6EA6C092FBD0E85DB004DF06B8C9D3089C5320187E4CE1846158C7EA7DDAE8AD9AFFF21AA3A1026BB06A259845E8232DEE62811A4DA9CEAB3A4887320B76E2AE5615EAB7BDF738CBDD01F1E64064BC13D9EC53576751CA8CACD58B3CEB0E6CA585B
311
D089B2A59B9FC101403387AADBDBE70586B93D64BF3AD4453EF9C3B6A93817E8346991798601344F79A83C51F3D50F7BF2683A3605F51A72449489E0EE6169C749C60B1035651103AEE24D24E51A759C840DD3FC6504DA6FE107510E447B43461C79D22970B75DE5E1BD3007D1AFC619A4A4A69B5626AF5E9B8374E20677F7
311
7E2F8E73DF868E8BEC7EBA7B6A75EEF7205E1AB9486CB642741D6E03FF13FCCEDB1C4AC129886268B01CDF4B124AF797CF784F3C6DEC97A17D4B558070A0F1C04DA4FF9BDBF34159AEFE958479824B3F58EBD1E19088A2AFDE501B6F2052368A3FD0E650A179EFAB1561E1D27527077136E652676C3670F42DCB3352F48F6B
311
C86D2C3B0051727E41A0A4DC6CE2BE9D47F5CAA2935A3C0539AF080665997194ABECD723B08129CC5B6B21D2E7D54CD4D12610E7E9FB8306771A89576C7A982002775ED44F3F744CF21EEBB27A631671D921938AAEE3EB0D19CD1E083727F607823E817BF599DCED5394E37EEBC2E88782E638920CA641EF74D4CDFCDEF06F
311
4278ECB18E31E7E9876F2D783C8BF429C75395F57E98C2B495A3DA077EB3AC3C158608B6B57FE3EA48484D9A480096FCEE0DE880950E7E5A5714131C5C41AAA29FD19AE81AC145FA1B9E85C7169A5AB837B213493DF7E9AA4B5FBF9CDEB36EBD21EF1181B7CF7366AB2A951D01E37AF4EB835D1BE8C117CFBE7625D2EBCDB0
311
B20C5A4B45CED0BCDE3EE8DA9DA78C2E21DEAAFFD1197E463C33CC6A80FB785669B856EFF7A8CCCA2841B5A5369173320B1170C368B2748D81062EA0296E5E2D95D7667A4A46D98A6FF475C76AAB0A8C8D45E226FAFC9FE0133EA9F60111F99CA81ACE03A1D14C89E8B0D69079C91464FA1D99E651D0EAF606F345C42A8A1A
311
A9BA391031582B96D5B4176A77AADB01F12FD298A75DEEBB2C82F0B8650E880722F8DDD90C56A7A058E5FDEF1AC93545BA27367C76F5D8F9690CB6F8DAE141EDD7971F0FB548A2AE435F224D6E5954CA155512F7332029D5A1230854B79F258EC5FFDB09F5F6343A8EB193229B7F7E79B3E48F8E183860B38C8269D1B53738
311
FF1E0BACF6AADA6D4869E9DE708E79B5DADCC09B1BC76F649731CFAF59A83FD8BAE4C749D66FA87A3810D4D62FFE826FA400C0F325D2BC0F3CA35F5847B82A2ACC7961745C823E4D863D54460AF792CE6F79B5C7A33B25C3AEA6CDE15A919B6367D781E9D44F61BF828672594A3E1D9EDD6DF179A81F27EAC05B936575D73E
311
05C209DDD2115CFB705DF9BBF3C911589B3640735E9E618FC9C36A7326C82B2205E244C55D56FDB9D5DC93CE958D4BF8174D2B3DA54CB3C09F2C2A6DFF73D23B2197355761AD421EC581284A7EF8DE2CE3497C0C804D49B41DFD6A7360844E5BEFFB495CFCDB97A4595911CDBA623274CE852B5E278AF0BEB1770E9D37CD97
311
7B2766A7DED0E94B840E1E95E8C77DE5CB6354AF7871427C28ADBEEF7BA0A28E19DE9ACD75F379FE373EAE6DDDAE3834692F9C2B03B4FCA8FCA9ABE8EEEBEBB725B88A7C90941E850682CA04061A7DF0CE82ED49BFAFFD42C309818FAE14755CAAE78B0F73243ECCCAD7DF58FCB9CDFAE7A4D3E6671A613639130D056C8383
311
C8F4FCF4808C331E544DD26E4755D09EA05253B3049A1E32587CC25D72E073E2CD96D04A71BBCB0038FEC3F53D254199C3CDC67CD66640269431860225392B2CB3ECD0B4498AAE78BA1994246AE1EE78F2EDFB79F6C6CB6B5E279C4D373FBC21CB2698C9ACBBEB6A4BB6B39E16AB0E421CCBFC7654D81ED86022F9BB522146
311
F9F4772E2D0E4FA70120C95A85A417BF5078B232F4754363EB1750B2AC2148EB46B1EA72AD9B4D23ADCBC589D70106C3EC2ABEEED84DFE28E718C6C83502C28E9FDD3B09DA0A6F6F7B72B706A31C9E2A331EE70DA56A083D2177BFD63C55B11D8D949FAFCF90B23A1E24B9B5018B9A17E99F2890EC302F330FE7936E2C23F0
311
D237EC8916F5166AB84B62A21BB0B950146962D754F92CC2C8877BED8FC7B7B25726DD19545392570B3A2C66B58F027BEF412E552D12A588C4A3CC5C3193FCB3485EFFF700D0B9EEC077754A33DC1FB9E25AF814628F91DDFECB667D3F7690803F38D13F8AE39353523BB08FC6760144AFA2CE28236F65EDBB3D5F59A57D61
311
2B99E3D7E5F8A851666BF9B5A6658EFC96EEB37A378ABB0EB3FDDF1303AF32C41BD1C8560745D7BD81066B0D6313359CF488563D3BA3F8E2185D1FAA3EBA1397C9D0E3DD232180A4DCADB6AF25DB3AC3CC26589C8239E66E81547BC7E2F328F9884764CA37EB5DBE390DFC03A5246B456A7C3684C4377D0EEF9A350680FA9A
311
077E8B2957B489E09AB1AD41316944C2254B5984830F691C93CAA767EECF976FA5647538830B5E63236A6F0365C1E0F3E327F24FE35EDDBD7360B0F7374837409F7A6311BECC12B7026D4FA1AE204FA3F5FE904B1F420C7A9044AE58E403E7C4848E7DA25DC9EDAC79DD756FAA26B9EA83ACE8A214A2612A22AFA19DAE7DBA
311
C5F8CDE1292A485F98DAC731A29FE01A3966E96BCB9FB5A4C8830E1B9AF0C54B87FBE221A097036E5D28D1F869F810C06A9BB0AC0612F69AEBAF893C6E7AD59460208BAB3A6B09CA4F6BDDAB8CF0D1F84B72487498395A70DCD754796E271099A567A55CF242BBED64696378BB6CF25EF0FCDB589F3A82F1116D010A9AB9FA
311
4358809EE0C973A2B4229BAA876A70B03AB49CBA7FBE71DB1832FFD32F9BF2C8E98075CACAFB36921235D0F552B6A67E94E094097A5D7DF681B40623DA535ADA7A9AD8E9A62407D7C9A5AE51D62A17A83A23728DE86BB56115804D3F2675F2C6B87541A0FC497BF0CA86420F558C9859EBE9FAD62747E323E3AADC03FDCDDF
311
E7407B09DA90B44E3185723C5381EAEF589765E2F7A099BA46695BAD60CEF3491B8A171F5F56444F7CE9455312C3498C74173AEA0214EC029833B34B650CBB5A5508D5091665309642791708ECF27CF11DB3D797D6CFE474453BD4BFADB768094B2147814D81C7CBAF8228DCAF5564B5891F5EF6A860EB2E323CB82AB868D8
311
EA048880D63B0DE5341F1B3D53297B928A11E15F25E5148990F710747C3509ED14909C552EBE3973246FCE55D00564D8310BC3EBC5085D08D806799B77D6C57FDF5E55837F9E934F09C03C729271B64F12D0A9F9E938107CAF7BF1EC8CF1BB9B42363D33070F4CACB425E605DDB0A34A12BB936DE286B9887A4E2E558F0886
311
498BFF49C311D96C277CF6A9FC0D75AD0ECC5226D7E0E3572012E56D7FDE4410CEC7A6D0F997F225A2055B8B92E3956E875AE4993CB3D4C9063AF98FD45E1BAB165640A43439A2C9181A7C355B297C0A0CCFFAE19B6FA3C2BA238A885FBC98B8F6DAF4B94B97304878DF4D8BFF6A4AEDF79E90ED4E68F00CD7299F4E0D83E3
311
5601AF0CBEF18C1E870E74758FA91F5131075004DB3CFCF09AE1DABC11957FD9808C92E8A678CE9DBE40DDA0E0D1D505AAFBCBA208232BFB6FB3704E8985E61ADE53DE74152F5C7DE74B1DEDCD37DC3E8FB30D7EBA8B9EFFC3606BF90B8D438279CB7709FC7C00D327F41817EEA71CD9E49FE9C8C9A81C70915D9F0F15958E
311
C5AA4C3BBFAF46986B90F188BDB24B89DE3C6F29EC3E6F66D84856EE96A35E657CA41B41EFD8DBFA16AD6E91439EA92B40B21C053249F51AE50EB0B24C770FFAF40DF12C8436366819C48E36547D4E7B72FE2BBF10828583057814A668BDF183F6B2E58DFB151103E56303E63D00F39C27C4661605DB644D19175D02E3F024
311
1E8FC3458D17AAAADB117CE9EEA690D0DB01E634878C04C2C9310B69FCAB831151E3AD293BEF6E46B0ABCECB50F5939B39C613D41E81FAE8D34CAE3C4566B761D37185FE864AC32FCB71AEF39DAA5BAB88609BB980CD2F07A8F941653B529567726E2B2A58D079DD57E1E5E31426CF184A04D7B03B985F276D47406AF276FE
311
32E3328BA866EB1FD39BEF57863A317634AA5FE467409B3873F5069EF0D71AF00AD189D17BA1974ECDB2D623E9E14086386A6AAB5807825C37B015BFE892AFD154920EC437EB945D958E18622E1E0FE2FA06557CE4BB9BBD05A2D40E774DA2B65473791E314B7D6C886820B2FCFE4AA272B3B8B15E7344A145E8AF919B5454
311
D89D36D413E87211186BF6F645E5EC94DCCE8E1C799022E4EC9BC86D7A0F2AFB1FC4B2CE48F84B3F49ECE65BAD24CADCC07EFF39AB06BE9E6B27A059938EA7208838455383DDBCFCD967DDE4650EF92A14FF933C975DB20BD7FEEBC4487576485963D757D16340D9599FEB362F775F38CA4185A86F74B629C81B133644A3B1
311
8FD056E997E0734F9BE26D11C0AAFC669E2AC9FC41D281F8B2E1C35AE27BCE05F3DA295488096688719D974DF1B5D182DB7792288697F8763CFB43562C1CDEE11C4AABD5C22B6E33F6F389CFC3477C5919DC0D533F8A7A1846B7ADB60ABDC26C43D0CFC8910B7C15EE22675BD02702ED39DB77A87A192CA7A543E6205B979B
311
9F5A6B512A3CA799E198B2D5797C0AF8D1D872CA455D4D431A7879D4DD76110B5FF7F4176B54477A9EB5E4A5D11214FDA585F0382751D8E2582BA5D2075053298FEB8F1537304E32CB22C2E2B693DC0A760B1DFCA751BDC445AFDCBB12820ED85F6D5298933C7EF1211E9E057684056CDA3FEF3BB6052355E162DF27C59E96
311
5A8DDB7F9437EB72CDDA3A090DE65A5B2F50326247B7EC67B73ACC7047FC9B353D6EE990F772207C6EC52B39DC2F3C0754821DAB559F7C1809C7D0DD5B0499D0442E0A6E391B3D5DB46D11E731E6794EC77523FBDAA242ED67F9FA1FB684255671F63C9BCFE6E7E896D51001A6113EF2298BA494E0B0980D1FA5B9D6079655
311
4C02256B1E0345FB7C6186B6A19D2DCA270416262845FA4F42DB5D9B0A0B6F07FCA2E56C242522E001E0CEB734AF310FC8BFB57E38E03AACE93B3326A2197891E68452B26A6307FDABFEE0223D3C03C3C73D2D5BC054C8311F12004CAE488E5C29287F8156A2CAA4AD0D7BE6B97264E4139F437CE73ADF52E5134C52B81977
311
7C18B323A5924E4F67AFD13B1CDC3A61793A79FAF5C0CEB718E441071E797C6DCCB9EFCF7E4A1E9F3DF3C2F9C9E8294E9586868788C972857FB0556D7A26941A7EEB9B580AD78EC40B85DC906B4120A563CA3B87797ED612D3B035962BB75F6515A393F4CB057F564CDF54F2E5A024514E6A1F901DB80C7E70B1FC05E356A7
311
E72FABF4775B3E3FB8F70A2A8E7B6A94542BB304157978CCC999E707A29CC795E67A59CC546A5D47B368954CA7B6E75EC9E1F6FC73CE3B4F71F8CB1A6B15923D61EAAEB14626AAA9D04A26EB9C66CD1BE86CA31A5D8703DE04CD1EBCE4F5CCB62F93909AD11E55799A781A956ED27D3E738F4538CB04ADABC7DAEF20BC35BA
311
6A90BCC1DC61BA05F20D8832FFB9BC9B15E2DB838A0AFBB7E0C82A562127E0446894F427794C3037186F622BF24DE1B00AA10A23BFA47B2A180D6DA5AD6F7326FEB8C100C2D7142EB2A0B2A9D1008A09BA343D70E054AB69E2A7EDB783CBD92537FAF4A44D1296AC2792729104B3276C276C951D0CF3CF3F1E6B017720A7B8
311
505A5FF9589365979678C36F1BAF759EAF57C60F1FF5FE9DCF5F8E764FF25A2D06CF25117A8FED51884C13B2B750DB0E4F5E3D64124FCF11F0AD8F1CC3B3DA4B38ED22BF1CB2585EE6BFEBBA63FBFD44F9537B9B37BDD6B358720F98A8125AED4349CCFEB0E135F19E208A04CA7E2B10711185D72E381F448036EF57C9F874
311
E54A971CA37A639E986AC0226DC5AA00D5B14FEA9192234B3DE617814FC221C92F33F1D392F297731B567FD98FD91D989379AF567A65B8ADF177591DB90FBEA99BF4ED11B16E50A0AB1DBF1156D034BBE04D69D08F939D8E92BF525A1DDAFF80ECBC95D8F45D3FDD289FD23F7D8B452F8EBB34EC082DEEE68E18EDDF072060
311
FAD2AB1504DD4879BF67099FC58F6E9DEFBF645D16334A3E9A127C6F1AF6132CF287E433B43A0EE93812B4AA0B194E03EE3FF91EF9C6ED0074A2F6EB18A96A7C9890B1FCDA1F2095E944DB911ED54C60DF16FB74C8CE9BDC7C54C4F14078CF73C2FFF1F1BBCCD7CF64F71407EA1683DBC410D226627F66E509060D5C0AFD61
311
1DE681D509DB8DD12FB1265B03C6F5C55FF4C30BD94187FF692B4F152982502F193098A789526A038AB529A52BC0DC4FB6285CBAC10A8B8DB75DCD9BDABBB221E27D1F8DA9F5EE5926A1C8AA9BA9BC09239C6A7F12914EA3B59EFF7AAEC3FFCCE56F1C5C2980AD072793527565E774F4631DB178CEEC691B1F367BEA0CF290
311
7E1D6B854D527065979DDEF002D8B2ACEA7CE21AE297737EDE1D45B31233B73FEA35BCFDD0B09721FDBAF6432681F2FD10C3E9EFB246FD6E854B344ACC9D8A0EEF876A7314B49B6A499FC650B099D650DBFEC7638ADFD245E2B7839DA5AC5F7D5623FC0ECEEC8653FC9B2BDD1AD4D00A566FBA7186DD3C9CD2651255163749
311
8CADB950FEC71ADB9A5524285DE328B8EC7EC75D2345AEC6A27C42AF6D9B92155315C80DBFCABBB7DA0FAE425C4FB896B15C9BFAC4FE67DF5A23D30C93DA4D8F36FB15D100050DA6062E22AEC5F4DAC4F6FEEF97AE05DE63C6D38F9E068A20BC5E3B6BCD75320C5090924E7F93640A7735B1A43451C2D91EE62C6238B79734
311
9E59890AF3A520DF4A87095F3ABEC2E61F0593416CE46CDCBE0E00E2523FCCD04408588B5B6C9DB6459C786CE378770B54F51DA3A5E1DF2A3349BEAAC234A6CF8993B598B3B25B4B113E353A4D750FA7534749430F3EBF2512E7EA3FD43C6AB9A1F765A58463B306721A15D224FAFE8C6F5E3432D57EE697DA0DD5A9D4866A
311
8BCCAAA9DFF1F06047851408FEC060471D0E3EB86BFAF46E4B5E60311DC3E3CEA147C75CF971BE74689507154FF2D2E92F15CDB2B9182B11459FD8ACAC5A85F174BC94A7F4EE4C4F5CAFA7C02E37BF0BC77B7DCD0C047BC316F562A01A441AFA7931CC84A28CB9F4AA367EB515778F29BFE61195FA671F4352E5E46E3A6477
311
3F1F76EE5EB36D7BCE9BCEAD837A4D77F8DB8C92AEEF6711920D7C7D0F76B0FD0EB7AB83724CD35BCA7D36DDDF5FBB7FF6F04A91F3E2BB3B8F1A43CD659639507FF6331C5F697BCC782AE57D757A27D97F1AB9E0AEDB43F92F1B2AACDF5FEC8ADBAF9F814E2027003BA2F9E144B1938A7A04050AE5D953B82C45619165C813
311
A10E76DD6906B3C16438064D14CDA713AEC420034613E1AC7241904A49FBF87409AFB1FCB9B72FE7933A87D8FBEDACECE4EDCF6A4FE9FB94D5DEB74FAB7CFEAE17EE965DF980DCCA2D04134994F9A2E94D2265DA4FE6AA7B7AC15FACAC2B5ABBCD7DFF542C5314FDAB2E1B9D8B65220B8E2B638BE008E8DCA22678C820C505
311
3664D15E89F2D735B51A84955E81A443545E9FF787BE0FA700A76D136C27DA179A7C6E8939E01BE756E19CB292798063D8B97F44E8A27BCF3A614FEB8BE974A718E86F7EC99B53CA35FA24F61F2B07266684623A3D4CF073E511F3A10A8FDAFAF0078C577F4DF9D339FE7862E5FA47CF4344209E5BF76D783B1B48E152AD28
311
1B15FCB934DCDA49CEC5706B1EE8B460F435324A5CAD154725E21AB8044B75A557A79F6C807B9340AA3D92503E866F4274412926C8C504E4D5EF8C0E68DD0B028781A6B4054F11CF18941F101C57CCC796773ABC8DED9CD91FE5788806C05E548895354AEAC96546D55B0E94A59F148D061F42AA398D822CDECA4CDE79E134
311
69BDCC44FDC990F366BA5978C15F97ED80CBFD73B0CD9B8B83A4F6845BDFBFAF034019473FB9A63BD55D3A4A7284757071574029A4D016DCCBE95DD679EF3C4880BF169422F8C89B68A988D2B13793CAED4F74DE7486C72DC94DF46B8E93D8E02EFCB1FF9B3BA10C8AE7F653DF94F4AF466CDDCEF5776687F7C4C14B63E4EE
311
D1719DC2EC482D7DBCC7AE518CDE3D5FF86D39000EC3673C0044E1D308BF05F74D1B5F033A7D1BE7F74BC55BBE3E4A20F920946CA0271EB17BD2B80E5660ACB8A29A79F5E4BBA49D4D945B6EEF4A7EFEAA65E5555BBB57A7E15D2F83C69F30BBB978D2B39F1F26FC097424D39BB33CA3D87ABF64E307938B685BAD44F71556
311
A30B7E712CA4FE600613C3E554B69ADE949A7CFE214DF1FFF05CB82151EC6FC31950239F94CF7AD39DC473F6EA356E5EC2C4EFA04383CEFE985A127484366FBEE3C0EC4FEA363E4F6632AE781392FD45D67B63FB8DF70E82734F431FD3443172A0E30A83D60982D55FA6A2CF86DBA8382502ACC6CDEF3B907982EED1160E14
311
863FA242F9757347E1544275CCDCF71ECD5F8621CBEA326B8BA884AD7F825781923E66971F04010D574C541D8427A438A37EEF8AF88240EED7362C953F5A81DE2D56109CDE2524EA0F5D2F87308C0C47BD97AD605878AB8589E17CA83930CB5E0DCCD75853D68B1AB136594926DE426C367428E9334AFAFF90ECE221BB5DC9
311
E5BB53D2CDEF954EAA9CD814F0E5725F1965DD458E5F8487683AD86B9D0076BE3EE91EB1CECC5331A67A3F79D8B27587C12EC2A6A70474749F27B4C0BBAFB94B34189E88DC18964BE4121B9137FD516C7755356E50D6714E31ACD222621EBBCD1CFF81D87479056A9DA0E0B8EA19D24CF937DA89F78E8650CCBDC110AAB6C4
311
E46DCBFD0446BA9E2060E81F314AC2031E88135E5476AC0160EF5C0DD2EEF1B8B5CB2D198BE9A554A9093B5F7D7E4B5407DDFCA1D9C152FD97F55BFFFDFE802954DFEC8995B983E28AC92F1971E28F531DC407A1280EB125F64A72E617EFB27DFBCEDCDA2D6F2BDADA36873EE46B9BE1782998C63DA7182BC383FB6FD15DA4
311
72B175D7E8B4FC88F38D6E07FEAA3FA3CBB8F6B449ECF14D2175E5C5CCA3A42ABF24CA6C9395AF74535F4DDB38CB84F56614B0FD32D7E19CA5CF988DB4449C40E23DF2B16772594554579094450F56F253CD25EA7F77366FB1CFE79696C428BB64D5A41E986189427E5E4D7E2DAE3D5BB4972B3DC44EAABDDDD63A2264ECFA
311
5C786EB0EE1FDC5BE34FA0F08376869FD1E61EA06CAE15191135445EE8F0394161C3266A596AA035572BB0C8876180D8B9C77D307DF9DCDF7365ABDA6F3A2366436457A4DFC1F259666569A9E4A79C817BDD5610E5200FCE894A358EC72858D50EF67545DA81C6FACE3D457BAF70367E1E6BDD9A952FB4F56247F58F523B97
311
E640246051A72F79BE42FFA0B3187F63097F91C48B868586F714B0EBD5A00A8412C1236E1298F60C72BE6C96B82B404CADAA304AE9F303176B14BA53FBC2D5E86377E35542019E24D97B96A49B2C0E5006E7795954DEAF5DA58958839043C6C70BD3B1B33B6DC5C31316D8A6923F142E26F6711A2258AF977DDF1F970ECC4F
311
1F2B434B96D81BEB6E89BF3BBB3C7C8CC80505070723D6D7D7D3C8CA27CA164A26024FED94B12A86031867241DA53D929636DA600F050BC40CE48B8BA03D69224720DEE2ED2127390BDF5E6EA64527BBD4C4C63FA76BB801FEEC0E61218EC98A8A86CD8313781617877E66692839B9468CF4DB8E50A73986E558E309C0D6F6
311
76F921BE02F1185454DC75B111572FF9D27D85EA14C05AD7271225B391C4275659CA4A43759D0BA44639BE4C30A84DB7F67A41399FB95CBF923B1B1672ABC807C1590557FB18D811983FA97F5E609516D62281D38B1281F68FC75528C35E4CD7DF0F7DBB5E5DD69C414EBEA2F4A5B241B996BA77AE6C772E367408C633EA3E
311
438B68563EA8BE7667F3A4C4FDEEA52ABD78A2820F443B7914A15F180018D231E64519C56A12F6CA7C8DAE18F06F6B769DBF92329EF6A5D18FBCE600F36BD8E8198DE5CDAA96181F3A756EBA5501CEE58F497EA4F418A2B82565B9BCC611713C0B708CCA1F398B78C5F7D03B3437CC18F13061F55C7BEDADD5ACB1DB0E36D3
311
CE47FF6EA1A563A57E9649EA5D14D1A50EAA457463381C073777EF1600607BAF6428A7DDC079D47A204EF1E1F1F0589FB054D45E02CE623B3823C317C601E589E22B1E88B448524B86A82828E32345EC18AE17214B42F8C41C6D428016D9BA31DDCB47572561E5A402E5BA4FCE55F78AF7268524AA04130F3A20BA5D1E9F99
311
48EA48FC8F5314FDB35E21898198060034ACE5E3E2BBCA34092518F275190AF65F45867FF0900AA4B81F25427414C372BF51DC29AA855C5428EE1EEDD6B849AD60F6E73475C2D2523F8A2772C840A478DED18A8C5C91B085F255DC4F54EA7AA8947354FD17ECF8FB3B4A0DE7B483CAF3A1165EE05BBA413E5C1FEF3DE1D6B8
311
F2F3F3251C17D9FCAB48A9AAF63AC773A0E413BBC46A9ADF84A566FC920E4D8C52C9769EE3301CADEEEDD92B312E02E2A7E35B7F1E7D203FE5A7D75578B06E99D0E46FFADB8FDA17ED8880390DA29094202D6F645F76F6F96409CDA05495A96E84B04A00D1A6C6C81D7F3DE9376E828CCF144EE50E364ACCE7237EA0BFB560
311
7ED1AC3CFE73794E5B61739D14DF1743441B1AC98F00ECEDE9E7301FA29755FBEFA68C91EF2B314CF510537EF1ABFC9A762496280B546F5EDAAF8A5B387D469FC9A878A92828C88608453ACEC6094DCA54111E7AD5B2663DFE2DD151B7F123B9F4FEF8EE36AB125FD7AD52A59B1B765B3E3F73E3F73DEA93875004D2AFFE3C
311
DE9493B87A9904DD052028949041A91DC0E1BA47BA714343FD5B25E0A6A09503AFC17C790058A836A324FE31D7893512E28230332F153181C1E018E1124EBE1BA262AA428A518237D1EA7275E48C5C561BD19ED6912EDD8367DA0F31E40EEAE9683DA9257525AEA7B632B97119E17145A90231768A4F3B9120FF32E8319B01
311
5E3CBE26F1A754177D8185345817C096B0CE443A955D13AC15E1FB5DEEA0239EC32A3C92241A237B0B02FFCB4F93CF2B02570C8D192E2F2A68CEEB42F12E6F8CEEFF46C251E22B4341C56FB08CCE550E7A9D6F4D6564B9EA52A83D5BF2C6E03FA19D2775E15A8A7ACF30A13C259EE7F5EF2AC3BA354F1500E1A07FC63FB468
311
6E2F12EC69719F9ECF5FE3F35598DF2CE944008CE78F0911BA5BE5D0A34E0098FF038669C26030BA9B300303039852A8F6F496341737CA7E0D2E3AAA36DE0A70AA7D9CA0D54D9AD84B18A44C9E625475E1C97B93BEBB38DCE7D227E67A2D00F531436136355F243D1FC0D712C5765754FA22FCFFAE97919161F46D6E61ACB3
311
7D83777B385889770B50765B127768443A5C4D3A4E35A3151111F146B7CA116F918A049F1C272F2CD7976C69A0068773451659A97E0F4A08FE604C3FF6CE7385DB19F4D3ABC8A0D80DA8A42096AC377DB49382B36E270B6FA7570188B4B7D1DDDDA82ACA487CCA5D38BD3BD039ADBAFA4ACFF27809239B722081E2EB9F1453
311
20553D183F28471C388BC8814E5045676767AB58A8E72D1CED2CA731379515D2E533E4CF0B39DFC625F97AC4836831A4DE330E87A8126FA17EBE583D614E71E22A8DBF2825599743E0640037303E8E1B1E8EA4E1ABFA4F62907B5E4E0E5DCFDAB417C36C6848A2B8D15F1E505434C0707E16B1CFC2A1C36A42BBF55734F8F4
311
301DDC2A5110CEE8C0747F69519265012A2174BF4E955ECD4FDE095A3ABC70536B7AD0B9D7892F81287D667C108703C9B66A221E9A0929D030008F77FF6F5D2108EF5706FC87A3069B976F7C9FC3239D13D283CDEA83597461079FEEE049B0F392889898B7D87D31F8D60ED7B56B91823A8E4EDDB36C6172ECEE42BD42B12C
311
D67994FA0F0DFAE9389356F4CD4425A4B8AA55CBF7ECD585C6A2C2316791E43D5C06841ADBB226A87FD61515FFBB0167B74E56BD7F3E90A57A97FEDCBDF483A0D6699A8C0849CAEB4947FAA90D8E332D9DEBD9F4738C37DA0CAF9CF3DAA68BCB67C420459C7A64498D6E848E5CADE92BB6901F607AA331104A67F7CD650EE1
311
69B1DAE94D2C31C2F993632259B6957E246EFE4C5481107B07118607700040E5812A2A2A38DA0076875258C753F60E0F2662C748EDD5F3F3686B8FC3BD6FE631ECCAA1E8B1C1E565AD117E54893E79F4672E32F9E46B2A183DFDCF3EECB4D4D077DBEA0DA254D256045109670050129E9B9B1A9E4A11344D61497A99277809
311
5151510C4BB7EF2009B63AA4360635312E4CF668B7E0D3D85A8688E2BD83B569439892ADB63461930D428E0DE42E4AC57CE48DA5CC1449530D8BD3D6A0F08DF20C8E8F570F2CFFFCEA286E30969B4654D498A58D9DA782E19FE3F002181838925592C4A1EF0B332D88B61A92C644547BED490D3A42CFFAB70E36D961F694F6
311
307F72FF15A1C79D5B1B5CEFD353D9E2B52566DEC8F8F09CB3E8359C0F68EBBB7898243E34E12A015B2685AB303C04D3A9E00671FF3DFF0A184E4A2ABEB2B666AF5B3A209C73D8EF29DCDB069C9F391EEE9DD0F74C7BCDE16F8F02E3B8816122BBEB50665775B600549D8BB33A54A6BF940C028118BC6878C79958D6784F9D
311
EAA6E26748386FFAF8D0D0101E2847B6563F5D8DC1D78F787BE00E2C941AE12148D4A81599FE8F68D4DA5CDED75530ADE138240300EE13B0FC13A1687FED6774662C05A2B7DFB186732F0D7A93545D8B0A6390AE5054D9CB582DA846D7A061B3358B45E2B52DDE63E114397EDB7E09233A579155D795BE76102CF277F4DF8B
311
188C4F2879BEAE3C08347124BF9ED23B128259FE107D31E34A652F090B30B39E0D9AF917B76A2806135621A8A60681F16AF216514BBD02711585B5B1AE823F4B2D0369EA5B6BCB863072727FFC871CA6C9AB79A814D989057E9470A3D238BC87CBB4A0EA49AFE2B86F22E499793CAA9047080450166BDC357524561E258C77
311
CB697F1ABB32562CF87C3B7AA12F911EF19FB3E5C02222E887D08202A60A17151F5E053A86B437771088B4FEE14D652C43E8D939995D34545E12E2FF93D4E366EAD25F10CB7DED141563C3D0C447AF06078A91135FD4B9611583CB4BF3BD167F2399CEAB0E0100F8FFC305F00F1711717173138B4B48C83022295DE657EFED
311
D97F238ECA80F528AFB4F8D67AD4E2594B9A3AA86D7487EFC313BA95745C186F0CDD84CC12DC9CB0424B42203D351FD9C0A3AF10CC7F388E0329279087386421F194F4A29464C1DEF7EF8BE515E4A199DCD5B909342598D8FE6A231F71336248D5CEC5454455C7BE383B3BC7B260FED27F703FDC39A170F3827239102F59D4
311
DEE7FEF82EAA1A5E4BA94DCC4CC44E7E2EDE20F24244E4454369D2E87C3F823F193FD4FD27E1C23984B01898D15ABC20711A8A558054951A6AE280096BA36CBA439603B7B0B4C45F248C14B2383B4B5CD8ECECE4FF859AD4A6CA2326D020EF090F4041D28DB66E5256B56232CC52829DE8060BAE6BBF37D4B7469B822454FE
311
93210A3E8D15E69FFCF01123222611C51C4FD0A041A0CFA2471CF6BE38D2B20FA4C3525B5B8B586759475CF80ADFE67A284AC24651E52B8E683D24C2622642F27E7C3C22783BCF63648BC398BD6CD0D9C97E7E7E3EACB6126DB7A6C1FD9F1031302EE67ED96F22B77C7CA0239BB324207559B105E4693EB26EC46182A92C9C
311
0DBD24F29B31C5C5AC1F84300E0E17CEEAC15F5736FA4A98971E2F1423BFCD68D4BBD5F86E74B40A369F39507C88FCDB35D2DD8DEBEA4AF999E23CF2816D204200DF6E611781B9884C1AC8888B4DE397320472959434323A5A36B22A8E1F721A270DF3BD65E4A31C11FF048AFB0D8B7B6881423793963A23CFCE935FC189ED
311
36FAE35C46DA3574C979E4394BE52084F3081837BE033396D2EBD80F1F691B273F660D2B32FA27A33B1DE4ADA5F0FA4651511102DFA410DDA86E065272CA314D5249DF91B06BB92807B28EFD54F08F7B525252782CD276DD02E6B0319B13DF87B1F6361AD6B28FC0D711CF445429B9E5A433CD493051C49A9E03DDB1B147D8
311
80253514A5DED88009018620EE229101C041950E2D8AA8E1F5F5438E0C0C0C60EEDEE9E3E0C051948C69F84BB7B2A48A1F3C8EB9E6864687F4F4F6F6E2FA87608ADAF9C5E117B7C1A737E710769DA1D15ECE6A84502AA855398712D5FB51BE92E4EF824969CE18278798AC303C2C7980DD2500ADF8FB1E6D6C2FAAFF998717
311
8923334A244758BAA01A9A1B70FA5097D01E1CC2A58DAD0EC94CE6430AA9B0C10D75E3C6BAC670EFBADEE1607739CE0FC18A2587E3EC3058562014C64219C69BC269082D5C2F4A659278D585755912176D78A1B641719C2A394CED495A1AC5D583FD2F5EDD93308EA7EAE8A6DD396598BDBD3D4CFED62D18A5BDFDE0DD5C80
311
D1A89BA62697B131AE7CE9A6594138582F1B37D68F1749AC7CB67A70695D48A4A056AC1FBD4E82358CEAE38F54B95A9016F9000F9879C0D9D131768635CA798895F27D6F1614F11F2838A83611AA51C9A3DDB539D42979C29F10465655C17BEC3E2760B80DCBF609198C7B171A531905F3EC218D696025975E986C6B4C6666
311
66787271F202805577DD5A3EF0CAFAF91B62DC4B2DB4217A7606282F31D8DDBC290593BAA93EA6353AFA9939B877978481E15CFC9F2755CDC00C538F63A4BA3E80AE009B73CA0185687D339A507D165B74290D6EE46D5C58148F020C3668ABE9EF2F7549170DC80DB41FFC1D678FF19AEB10C7133832B104B80F691B3138F9
311
7A92D26E551F1F110400D45AC71A9B9AC41A1A1B1DAEED0B0810638EFFB511D46B121C6FEA0F38CD00E03CFFEB9713FE1F9C263E4DDEC160D0497FA9A132BA608584057FB15380825DE6C7FC3C667EE947D488A09898D8E939C4953BF4EC9836344D2CC6B2971B2A21A572B06096F4982D2CC7232D46E8EA69DC83722E2677
311
54D777F97F96D5DA74E1E75178084D0E70F12AD33E5F71EF2AFA599B2BEBF60A5BE475F444F240CBFE8143C334E7ED9150FEEFEF7EB020C4DBED388DD1D6A167A76F3CBF119B578AE8CFA7736ACAFA4440A1C47185638A0D2F3EB5BDDEFDA958FB13CE4AA4923D5BF840392D45544329525749734866684BF7F8D9D54D892E
311
19BCA9F829A0F8BFCBEEA6CFDFC61D74EA1A645ED7A1FF241739F15694BD835B66FEC5677E40FE69BD3F91AE402F036537218A401CB0828604AD189E575015C6F3F6BBC8AC79CF6C70653847254B31551EFCBEB5978B9DB85D58D0FA41A9DFE9C624834AA04949D24B5AE6D299E072D152D12097920F14AA92C31C3B97E28B
311
6C2E6E9C23D63043ECBBC0A60FDF5BD0C33C127EA8A3308B8B6AFFEB28B4455BF6E7AF4FC6222728357EB8E46E85053E6A8843AB23295BF838ABDA94658FEF3F832F147046B4ACD6F7D48E8FCC9618582961C898D1C7A253C91BFECBDA6BA18A1FCF70755DCCEE2222F41B76D23CA98D0CB3D95F0CF66D57FFF65E2A90F5DF
311
40FC3187621E981BD0BC1D992787212688976B94A8F0C6EF646624B570B78E068826F87CE27041A95C9A4871FF65CC17FCB1639629AD6A9517000D63AC231F3D741CB8430777E7ECF80CE7A3F73C0F162F7E56AA71F4DA80A33CD6ACEE78E2C11FAC03DAFCE929B106F8F6B3ED2DC71FF994BD9CEF4E9A94896EF1B6E2B7B4
311
978168BCF0847A3D2A4F1B0500B926E634B174548E9FBAD27153FB5FC36799B1E6C7C38A94E1F9E996796D7B485E635D5287A2AE76FBD11A341DB3F8F810385BB7296391973DC6C37C452A9305AEBBE0CDB6C566DB59FE60C8E94B1FD090354BF51439FFD1B48D725228FFA88C84F686F547107A7A235665A4593B7C34D748
311
C1AC8D56DD5DA861EEFBADDECBBD65117E65851F90351AEB65F0EFCFF4BCFEF24CB7A5879699FAC437A7AF9099186CF006BB923A59E37D7A36A29FD8D2CBB914A5E9D0A8FD212FBF796AE9A67958FF1D5D8B85F78F96219D4714EB919929241B6C018AAE0C02069F8D919961EC5DDFBFB7573E3AC8E08BFB7C8534BE6DE045
311
B3CD63DBD71F7638BA2309CAE398EA3A7D8F98BBBC7AEB367EFA5CFA27A9F8F2F52FE878058E6209C026453F8E7E8A237DFC389E9590F6059B397CFD65183BBF936E86896612A5B5FEE49DAC8455D026218AFEBEC12B3523A45B57B82C9C97E02ACFA1184DB18E48CF615DBF39C3CC6F0B4AE6BBEEA2E39D944E290302FA3D
311
E33FA7E40296E2EF7BF1CD855BBECFAD0FD622BEE9746FC4FDFDE545AE6E3BC234CADF83A0FB76DFB145BF3828AE3436368AC24989454F8FF70A177672C711CAA1A76107218CF948CA01F873520E7A2B118EBB161ABAD432932029628B6761590C98AB590C8C8C79798CE9F715BA696E839E9131A4BB68BE923F1747FBFF16
311
5331FFDD4D05997ACD168F12CA75348DAC04C7F509FE83898A8B421181AF492861CE81E4A2DD0A30850CFA95E05F097FF70F9E777310D584A75BA7018922E271DAB1D785671157685B7D383D3E074DDB4F1E44EF04B07BAAC75A062077C54B9752C738C9D804D402E02851F3F89605AF189738C18C021D2139EAF72513824E
311
10DDD3047BACC8521ED7E98B257D1166903B1B08FA6F918FD7E162913FEC7D0EF4787E29C35FBA8C6E2C9C20E9AB30AE42CA2A01A090E7D010C1B5BF9CEE2A304BF3A987FB40D836979B79E18D70F257DA61E808472DD85B82761825779D6B90CAEB0F23360C6F80A7D7D77545E95B3DFF0CF96A827F9B5BCECD2C96987184
311
17EF80FEEDEE938AFF55859D0D540B7FE09435583A6F04874A0C7E8CF234DF4879722000167F5872CEC6BF3EF7E5A8CC8121E6A359227C8A29C95212F9F735BC72A887D56B8F309FC525BFB4FD767AAEC4AEFF249CFBBD2DE1AB9969A6155C7D8DABC307E47324C1F916C7BCFF40ABA5644E9FFB9238D19ADADA49D9610F01
311
ABBA57E4DFCBDCCBB2B93C8953206C91DE01B0E2651A6D6C31721915B31F7B7CBCE55466F6D70402788FA91D73BE4ADCBA99A35F17D6B83383704917D6833F0FA3CD45C926ADB8BC17999A4A0AFBCE2541F7B8CF4C2F5FBA611B3E626D64407CB32C122DFF4EF8674D6EDBB86C8F7C6A16D50FA685E2CCA34F8F7D1D8265BB
311
0042E9D7F1F666F7BE5FAA5184DF58E12122A42EF02F461B3F369AC746F96528AD208512AB56844CF75B97F352DF7995024FB02855385854F3798670D01CAC771AC3E1889EC25F61A20C1F8CAB46898817F9C47E2CDA1F286BF2F358298709FE567C91133E2638C8B53975E753EA8BFD3578B5F7186B7BF084EBA3F77BAC31
311
32A5779902EC22AF2D2E79F42D324E083386DAEE9810D1B44A5DAA54513C7A71E52A4AB9257D975B621308FE4D2141CC3DCFE946C154A3C1DFCCA7629EC69ACFA831634ADDA93C0388D2A9A2DDAFCF957C6995BCE7FBB6DC4EBAE79E63EB08E9A25F52F67076F7093CA545CA3053B5BF576DEAD4E0017143C5F759F32B2D6F
311
145B52B67B48909B7C7FCA6586EE385A2189C16932CB6DDFD9152AE317C430492A578ED27B72D85D40C7C93C097939E1B50F4D67F05334FE9DC362C30B7FF561B95259138ECFD9274C8D695C31B14D4EAA9F3D7FA8DDF652F8C5DEFA23284C799B7D94416DEE81E05A866302DC70192A5368EA65E1CED8BF107A1E2D3119A7
311
1E85DC1A7B0C1E93274CE04DD0F2ABC8AC7C987FDB002B6F81757B43502EF7A0D92E416494FAEEA4C9C090CD9557AA4D532F4996A272B94355C5A0E4974EEA9627476F30809B94D8D8D860062E02204643BEC7D0438AF800FC7E2B26955D595421E83C69E1A07E0E3122285835F014AD538188CF9737CE76D464A353FA55A0
311
01AB2526B84E985083693BC76FE211CA1D000679C889E3C009832C87E1AC2EDD05C302557422DF0800E316FCAC86978A371F025A6C7DAA9F333E7BD160403A1A06EA75AA9888FF01504B0304140006080800615B774728BB58AF800100009E0500003D00000037434134313342432D303837422D344442302D414539312D44
311
45383345313546373934322F536368656D61732F436F6D6D6F6E536368656D612E786D6CBD544D4FC23018BEFB2B96DE15493C78601010A34B880709DEDFB52FD0D8B54BD70DF6EFED3AC0B12E6442E2716BFB3CEFF3D18E26FB440405EA8C2B1992E1C323095052C5B8DC842437EBFB673219DF8DA659866649B798C078B4
311
8AE6410122242F2A4994AC7F93815DF85C049C8564CA0A901499DD886B2EB9B1E02448F358701A9235880C49A0119892A20C89D1B9FD768815CAD268CB5E0355B40B1E47F3E37A2020464BED06AA57CE8FCC20C3C3446D46761A2632A8C1283D07031EFF2AE7CCB1BFEEE916E406DFAC8E36FFD99A9D60A6944090EEDC3B67
311
0C7DC13DE86B6B2C5C240D6E503BB85ACD579D513F1B9F9A69DC9CC22AFA80C426D40AF0B21EA168559156B6276F0F726A6BFF04DCD513A87A62CAD41FB24FCB2858B3952E3D852084DA25B9303C15687973CC8E8AAE11DF2836C38C6A9E765E8C1BA1BFB1DC29CDFE518C8B5A7655A4ED7E77291ABEB80DBD82EC866ADE1B
311
8D05AF9E35CF09D7A061F38A986D9EC412B8F0F65E5D81534D9B231D1E5A8FE577A241F3A5FD01504B0304140006080800615B77472CCEBD668A040000E01200003E00000037434134313342432D303837422D344442302D414539312D4445383345313546373934322F536368656D61732F47656E65726963536368656D61
311
2E786D6CD5586D6FDB380CFE7EBF42F0F7A649B70E1B90744856B4970F450FCD7A5F05459613EDE4174872DADCAF3F522F8ED3B88D2F1D06AC4050DBA2493EE4438AF2F8EB73AEC8466823CB62928C06C384888297A92C5693A4B6D9D9E7E4EBD51FE3A931C22EF85AE4EC6AFC38BF261BA626C9AD288496DC3F4FCEAFC633
311
66845F7A10452AF41DB320C0D44EC26EAB20918735565582695670811A6A49643A49A6E9069FA4604A64B29016DC4B48552F95E4932463CA888468C1D2B250DB4962750DF7CE273069CE8363F1FF4EDB00E0A21999574AE4A2B00C353B93F3BD4777B8A61ED8F604ABFEDD79CE56A2B7BDFBDBC50996E0ADDE16FED26223C5
311
D30956C29BDF4A55EA686E5E58B112DA45CE67F76F4FA27EFA3FB672FD7372FC388FAECDCA5209E693CAD167BADCD272F943701B3812F8A3D852008B1D2E32DB927B2F833C6EA95879925356D254582695095A3CE982924720BE5774A3CB9CDCDB350427D2DF20DA1B5532EBE2D5D6288D75D4F7E4FD9890A0EF8E3D93EBB8
311
F8BA4758158EF6FB90A6F9520281C93DE7AAC6D24607DA296BB96018123F821A7D6A5C5884050C475DA4865442732C8B95684A50165CBB3A32F25F783A4A480ED59AD7F924B968AEA50131F46303223E6A397B0E52976030DC1DCA81D7E7C1EDEEA42C19FF27635C505E2BD5198A599020DF50A2330FCB3AAF28CB01241084
311
29553EF1B228802E2265D8F7CC2401042B155BCC7070F1E5C55F13B4A9577362CCCE46C32174E010C3C378C44841A4BDA00FE3A12006CE11EE6AEC59894D3526DDE1CD59D503ECC324017F8061B7F162162FA62EDD81AE3308617770796DCBDAD2B2625C5AE8A63DE20B2C8AA5E95E76E5730823955956E33E705425A2187C
311
185D36489A1B44D3DCEC2172F6BA2105C3546287A7194B2331768EBBE64F6E70A9930ABE0ADEA89E9E2C38523B810287AD67A54A039C1606EAFE68F8304610BB9093DBDDABC0B2AE4E290DCDA15376D7E39F72B556F0B32EAB5D3D498B4C41ABADEC3A1434C422D87E8025A84BDCB2B1417ED750FAE4DA8976863974C577C7
311
F902D3F156AD354DEA3540DE6BEAE2BEA52F7A2EB4CA43802ECE5BF2CE2EDC9347179FFB023CE412E60BE16DA0BE29B374988A553F561DC04615DD35F7D2C8979F60E5955CE93DF29DED8AFA1EE6642D53418086C03C47C377910F75F7E8F5EF665F70B60FFB22AEDF897D119E8423C773E819A3C1E55E550599EE6EDCA34D
311
0C86FD72057DF2CD46F16A470682471C164E4346D5306BF12D7D12D82CFF673D41636C347443FEB51B50D72EA171A8E4A58623A4A16E0FA2B8B10A0D23268D87C33896EE8FB73305A74BF224EDBADFA0BD674AB354D63DB7BD5D83426761C077DE767728235446A552754EB93B755891C3C4CC6CADE37CF0E912A7BB38DBA0
311
10F9DE1282EDF470CA69A9CDA482E334C4A6EA4107987980B17E72F31730EBF88BBD39E7C629F56797A3C0009C2C5AE7951D9A05A02773440F02EEB4DE396A3B6A570C72CCFBCD823B0B8ED3F1D5CEDDFED772FA70236C83FB7D86C385D570B87107535572A60A96035F8F7C6A7192F13007246BBE0521855E6AC46F3E2768
311
9CEE7D186A6FD679D98CDCAD13333E04EBE7ED6F55FF01504B0304140006080800615B77476180134D5F0100006B0300004500000037434134313342432D303837422D344442302D414539312D4445383345313546373934322F536368656D61732F52656E6465724D6174657269616C536368656D612E786D6CA5934D6FC2
311
300C86EFFB1551EEE343DBA41D1A103009551ADAD40EAE28A4A68D9426284961FCFBE5A340113B2071746D3F765EBF4DC6BFB5407BD0862B49F0B037C0082453059725C18DDD3EBFE3F1E829991803366715D474942CD30FB4A782E00C64017A412D684E454CE3FE28995203B162A6EA5AC94B66997D225E109CD63B013548
311
4BAD1B3C07E9080CA35DB3119C11BCA5C200461A68A1A438126C75E3E230D40FF81FB3F03C91D1E3A3A0AF79FE28E25BC39EC3E17E4C2A2D94A0833A51AF55BCCA7D88572FCBAC529C4140B020FC3AAFA886621DCED7EAD7664CC86024E806DC297DA1BB393E4156543457A4537DB8817349A70F8ACBF09B3EEE2CB2F33E91
311
B65D60786E4E3B39B77E3FEEEF5650424525DA657FB8B46BE6BF064646F0A0F7327C0BC1BC1B4CBBC1C419FA3CCB23500007872A2580CAAE5461865565294E4EDB4617B62FF579DF9A5B2F54E834076A597573A020912FED777F9B3F504B0304140006080800615B7747AB6E29EE5100000057000000470000003743413431
311
3342432D303837422D344442302D414539312D4445383345313546373934322F4173736574446174612F41737365745461626C654F66436F6E74656E74732E62696E536160603076B67434B3B470D235713374D635317532D275B43030D53536363337373732B334B0741202AACB4D2C492DCA4CCC492C28484D2C4ACC4B4E
311
050A82012F90744FCD03CA26072767A4E6260200504B0304140006080800615B7747F865834058000000680000004500000037434134313342432D303837422D344442302D414539312D4445383345313546373934322F4173736574446174612F53747265616D56657273696F6E5461626C652E696E66558CBD0A80300C06
311
F73E4B117FB66E451741D041DC5BF98480A492E4FDD18EAEC7DD4555D89EF28DF51A0B1BD8340C4DE7DD848B988C0ACF0649566493F2408C508DDEBB99D5129FF8F1AF8CF5B9503E20FAE5A16B5AF702504B0304140006080800615B774773972D0437010000A20400003600000037434134313342432D303837422D344442
311
302D414539312D4445383345313546373934322F4173736574446174612F636E782E786D6CCD94314FC3301085FF4A648931711C844095E30AC1D209242A06B6AB7329561D3BB22F08FE3D769A0154C4D4A1EBE9BBBBE727BF93EBCFC1161F18A2F1AE65A2AA59814EFBCEB87DCB26EACB3B56AC950CDED30F8C150E066C59
311
2E3325F7C14FE352EAB087C9E6AA35EEB014EF6344DAC2CEE253FFE01DA1A3C80A6D21C69645FD8E03543091EF301EAA0E082A51058C7E0A1AD32432032E93744020EC986A6A71530A5136D75B2156CDEDAA6EDE24CFA4923BEFEDC29BB42CF8F1AAA9F5712F53B5E41950720A66A1F26B98FA4B65B5334EF2442A19292457
311
960EFA1A53078CA3351A2899C7BD26A432410883E44758499E5DF8E5C523F6C699DCB249D2807C784E023190C10BF4E43FB5E7F766E32281D378C98E9C6A3CBF0F2FF32F7A3DC672CECDE5A5E55463655C7F86ACF0F99CA4E8E4EBA2BE01504B0304140006080800615B7747F8BF1AC6E60000006001000067000000374341
311
34313342432D303837422D344442302D414539312D4445383345313546373934322F5265736F75726365732F33433941363938422D344631432D343542322D413830352D3333363737373236393039422F7468756D626E61696C2F302F636E782E786D6C4D90C16EC4200C447F2542EA3121A4AA5AAD1CF6277ADA4B458937
311
454B3002536DFFBED072D8D358E327CB3370BE1F7EF8C6941D8555A8691603064B9B0BFB2A0A5FC737319C3524227EC0C410CC81AB68B6D0B0272AB15B1B5E4DF1CDF52EDCBAB963C0E4EC470CBB18AC3739AF22DB2F3CCC640AD386F9366D86CDA4A684994AB2580FB03BB01FB0090DE326F432AB9751A971797E57EAB4BC
311
9EE6E502B2911A3E897CE75D604C149F96D9521D43FD6706D9000D25B94EB510423F3C07B22E35644E357F87F82756C8C4E89D355C6B92641979AC109A03E43FAC41B6BC55FECAA8DABAD1BF504B0304140006080800615B7747A233C2345D000000800000006500000037434134313342432D303837422D344442302D4145
311
39312D4445383345313546373934322F5265736F75726365732F33433941363938422D344631432D343542322D413830352D3333363737373236393039422F7468756D626E61696C2F636E782E786D6C4D8B490E80201004BF42E6EE76F3C0F216234B883063108CCF170C074F95AE5473F5C4C06E932E4F28601967600677
311
D21E9D8092EDB002539227A2FCCB80E1168D80A6417297A89C5D6963B7129A0D1E8F2EE73AA7B62BBEB8B27DE50B504B0304140006080800615B7747BE89762363000000880000005B00000037434134313342432D303837422D344442302D414539312D4445383345313546373934322F5265736F75726365732F33433941
311
363938422D344631432D343542322D413830352D3333363737373236393039422F636E782E786D6C4DCC3B0E80201004D0AB90EDFD75167CCE820A4A845D83603CBE602CAC26799919AEEEE0D965E2E908050C6D0FCCE04C8BC355404EB6198129C92351FAD580A10E464065907C8D948F8F166375F655BDC3FDC3B4E530A1
311
76BE7057BDC43B2A593FE403504B0304140006080800615B77476BF5873C7F000000A30000003600000037434134313342432D303837422D344442302D414539312D4445383345313546373934322F5265736F75726365732F636E782E786D6C4D8CDF0A83201C465F457EF76E96E51F282383BD472C0B99E97039F6F8D3D1
311
C5AE3E387CE774C36777E86DE2CB06DF437521808CBF87C5FAAD8774AC58001A54174338FE6E80FCBC9B1E0A06D56D31A4E78916B3CEC915EAAC7F9C904E72645268DCDCAA0937ADAEF128488B29659CF39A49227536AE45C9F3EBE52D79F505504B0304140006080800615B7747E81097FB0A010000550300003400000037
311
434134313342432D303837422D344442302D414539312D4445383345313546373934322F536368656D61732F636E782E786D6CCD93BD4E042114855F65426239308C319A0DC3161656366A65877077250BDC093F46DF5E582976133B2DB683932F37E71CB862FBE9DDF00131590C0BE1742203048DC686FD424ADE8D7764D8
311
4A1111F3094686A03C2CA4C9448A7DC4B276C9C04E15D75467C3A18BF7E83D8667FD0E5E91413B95D242D2F14A55C968201DA85159514E23242C51439D90AD873E414750190C91F3C46F46CEC7F9FA85F3CD7CBB99E657C11A29C51BA2EBBC0D1922AE57F3A4B11E43353409D600294AB49D6A29883C75476B1F8255428A94
311
636DA193F96BADA45A5767B5CAB52C76047F1829580B7B16F9010244AB2F35F399BD7F0BFD04C1407CAC2F15AD72979AFD37977FAB801D37A07E83B610F21B504B0304140006080800615B7747E3603EBE7A000000C20000002C00000037434134313342432D303837422D344442302D414539312D44453833453135463739
311
34322F636E782E786D6C6DCD410EC2201085E1AB90D9DBEACE05D09878023D01A1D34A8419C380F1F82DA68B9AB8FDFEC93C3D7C52546FCC12980C9CBA232824CF63A0D9402DD3E10C6AB03A3397DD192872090D3406ABE7CCF5B5D18893ABB1690CF4DCF02282E5EA8A5BB96FFE536F285CB347F95BEFFE81C9ED5AFF9D5B
311
1FB575BB00504B0304140006080800615B7747C89C945B7F000000A300000007000000636E782E786D6C4D8CD10E822018465F85FDF714240DDC40274AEFE1121D4BA191B41E3F685E74F56D67DF39B2FD6C2B7ADBF872C12BA02702C8FA7B989C5F14A47DC60250DBC818C2FE7703E4C7CD2A28181AB9C4909E079AEC3CA6
311
B5D0D5F9C70179DF315AE91E13C135668326B83335C5831195A1D71BAFD9251BE7A2E4F9F5F2967CF305504B0304140006080800615B7747CA1DF9C9A900000073010000130000005B436F6E74656E745F54797065735D2E786D6CA590410EC2300C04BF12E5DEBA70400835E500FC800F84E0B411AD13252E2ABF27A55740
311
421CEDDDD9B55CEFA7A117778CC979527255565220197F75D42A39B22DB652EC9BFAFC089844F65252B2630E3B80643A1C742A7D40CA8AF571D09CC7D842D0E6A65B8475556DC07862242E78CE904D7D44ABC79EC569CAEBA537E3521C16DF5CA5A40EA17746733E0B6615DE7217475F386F18B9481C510F1F021CD9FF027E
311
A0E1F5C4E609504B0304140006080800615B77473DEE336E64000000790000001B0000006175746F6465736B2D64657369676E2D7061636B6167652E786D6C35CBC10E83200C00D05F21DCA56CA76D41FC96062B120735B69A7DBE268BB7777961F8D5AF396893C2ADB70FE7ADA196782C2DF776D7A97B5933C430F15651E5
311
469C55D70F80A4992A3ADC954792C525AE70A1E4D6AD9816CC044FEFDF01FE3FDE907802504B0304140006080800615B7747D5E2A8BBF8000000960100003700000037434134313342432D303837422D344442302D414539312D4445383345313546373934322F4173736574446174612F636F72652E786D6C8550CB6E8330
311
10FC15B47783ED104122E30844F2053DF56619875A0936F2A3EAE7D70E546A4F3DED6A76667677D8E56B79169FCA796D4D07A4C4502823EDA4CDDC410C77D44271E1CC591B7ED1A03062511D6418389B9D8DEB0E496B8232193576523B28BC57010AF94C4D075E7EA845942286C4F08F7215F22166559272E37116A39E76A9
311
9E929BBE6BE580B7F43AD0061FD1B56E7B549F9A1EF5B7DB800682F1484EB41E47CCAA2CE62CE8E567BB744A043501A7981C1121881EDE0839D3E68CE93BAB3293331F5CFA795F9ABF03DEE7AB471104ABB6E91FD7B84EFFBB466DC281EEAE9BC20327E9C8D780B32AA794CA2BC25473A2FC1B504B0304140006080800615B
311
774719F1F6EAF30000008E0100006800000037434134313342432D303837422D344442302D414539312D4445383345313546373934322F5265736F75726365732F33433941363938422D344631432D343542322D413830352D3333363737373236393039422F7468756D626E61696C2F302F636F72652E786D6C8550CB6E83
311
3010FC15B47783ED104122E30844F2053DF56619875A0936F2A3EAE7D70E546A4F3DED6A76667677D8E56B79169FCA796D4D07A4C4502823EDA4CDDC410C77D44271E1CC591B7ED1A03062511D6418389B9D8DEB0E496B8232193576523B28BC57010AF94C4D075E7EA845942286C4F08F7215F22166559272E37116A39E76
311
A99E929BBE6BE580B7F43AD0061FD1B56E7B549F9A1EF5B7DB800682F1484EB41E47CCAA2CE62CE8E567BB744A043501A7981C1121881EDE0839D3E68CE93BAB3293331F5CFA795F9ABF039EBC36F48F5B5CA7FFDDA236E14077B74DE1819374DC6BC05995D349E5155DAA3949FE0D504B0304140006080800615B7747B52C
311
99B9F9000000960100006600000037434134313342432D303837422D344442302D414539312D4445383345313546373934322F5265736F75726365732F33433941363938422D344631432D343542322D413830352D3333363737373236393039422F7468756D626E61696C2F636F72652E786D6C8550CB6E833010FC15B477
311
83ED104122E30844F2053DF5E68243AC808DFCA8FAF9B50395DA534FBB9A9D99DD1D76F95AE6EC535AA78C6E80E41832A907332A3D3510FC1DD5905D38B3C6F85F34C8B45864030906CE266BC2BA4383D15EEA846A33CA1D14CE490FD930C7A601373CE42272117C64B867BE8AE1292699937CE37116821A77A91AA39BBA2B
311
6981D7F4DAD10A1FD1B5AC5B549EAA16B5B75B873A82714F4EB4EC7BCC8A24E6CCABE567FB60A5F072044E31392242103DBC1172A6D519D37756242667CEDBF8F3BE347D07DC3FC2F2A1859A59B14DFFB88675FCDF3528ED0F7477DD140E388947BE069C1529A5585E11C69A12E5DF504B0304140006080800615B77477D91
311
047F0E010000B10100005C00000037434134313342432D303837422D344442302D414539312D4445383345313546373934322F5265736F75726365732F33433941363938422D344631432D343542322D413830352D3333363737373236393039422F636F72652E786D6C8590CB6EC32014447FC5BA7B6CC08E1F1126B2E3E4
311
0BBAEA0ED924458921E251F5F30B892BB5ABAE2E1A6638DC6187AFF59E7D4AEB94D13D901C4326F56C16A5AF3D047F412D6407CEAC31FE970D322D56D9439281B3AB35E1B149B3D15EEAA46AB3C84D14CE490FD97C8F871EDCFC2157918BE0A3C3DDF287986FE22A7392BF7C9C85A0962DAA96F89ABA286981B7F434D206EF
311
D0A96A075475CD8086F3794423C178221DADA609B3228539F36AFDA1CF560A2F17E014931D2204D1F28D903D6DF698BEB322393973DEC69D3768DA0E7879EC86BA6B47549DC91155BB91A2A18DF4B2AC9BA6A17587BB9115AFE01F60782CFF0383D2BEA41BF09570C049FCFFF382B3221518C7B3DD3853D9FC1B504B030414
311
0006080800615B774741BECFE6FA000000960100003700000037434134313342432D303837422D344442302D414539312D4445383345313546373934322F5265736F75726365732F636F72652E786D6C8550CB6EC23010FC9568EF4E6C13C4438E1128F001554FBD59CE122C881DF951F5F36B432AB5A79E76353B33BB3BE2
311
F0353DAA4FF4C138DB01AB295468B51B8C1D3B48F14AB6501DA4F0CEC55F34A8AC9AB083028314A377695E20ED6C445B50EB065C40150246A8F423371D047DC349D52AC5CC08F77A56FAAE46AC59FDE24991921916A919B29BB91AF420B7FC7CE21BBA26E7767B24ED6E7324C7CBE5444E8CD29EED78DBF75434452C4534D3
311
CF76ED51451C4072CAD68431C257EF8CEDF9664FF987680A538A107DFE79595ABE03F986C125AF3188E635FDE39AE6E17FD7646C5CF1C5F5A50820593EF23990A22929E5F28C30D792A8FC06504B0304140006080800615B7747E9B17F52F7000000940100003500000037434134313342432D303837422D344442302D4145
311
39312D4445383345313546373934322F536368656D61732F636F72652E786D6C8550CB6E833010FC15B47783ED104122E30844F203EDA9370B1C6225D8C88FAA9F5F1BA8D49E7ADAD5ECCCECEEB0CBD7FCCA3EA575CAE806488E21937A30A3D25303C1DF510DD985336B8CFF45834C8B59369060E06CB2262C3B3418EDA54E
311
A836A3DC41E19CF4900DAFD834E086879C452E828F0CF7CC17313CC52473926F3CCE4250E32E5563745377252DF09A5E3B5AE123BA96758BCA53D5A2F676EB504730EEC989967D8F5991C49C7935FF6C1FAC145E8EC02926474408A2877742CEB43A63FAC18AC4E4CC791B7FDE97A6EF80BFAD773A566CB33F9E6119FFF70C
311
4AFB03DD3D3785034EE289EB80B3226514CB1A60AC294FFE0D504B0304140006080800615B77478585DF3D01010000D80100002D00000037434134313342432D303837422D344442302D414539312D4445383345313546373934322F636F72652E786D6C9591C172832010865FC5D93B2A6A4693413231B14FD0536F143686
311
490447A0D3C72F563B93DEDA13CCCFFFEDF2EFB2E3E7F8483E7076DA9A16689A4382465AA5CDD042F057D24072E46CB6D63FD9203162C4161619381B661BA64D92D678348B6AACC24D14CEA187443EE2A505276F388A54041F1DEE9E4E42DEC580294D571F675E8F3FA89C517854C08B9CEE08A5A4285F293D14F5212FDE58
311
B638390BDAF8B2D89AE1F88E2AB1938F91224659B63E475BD06A3369153FA9AF1A67E0F5F954D1B23B93BCA93B525DBA9C9CFA3D2597BE297BBA7BA9F755118B449833E7E7389AADC83284BFE22BF82B5A98D43FA3AD8403FE142A5BE6CC59F6BD84782E3BE15F504B0304140006080800615B7747135D86B106010000B201
311
000008000000636F72652E786D6C8D50DD6E8320147E1572EE51A036B60DD2686C9F6057BB63422DA982116CB6B71F54976C77BB3AE43BDF1F879F3FC7013DF5EC8DB315D08C00D2B673CAD8BE8225DCF001D059F0D9B9F08B06C8CA5157906010BC9FDD326D50E76CD036A1D629BD81D27B1D0075437C54E0BBBB1E652697
311
1019FE914DB27BC85E67345B79820733FE48BB59CBA0150846E81E538AD9EE8DD2132B4F84BDF33C31055F16A3B628A362BAB9193D8338B04BC34AB2C797E250E3E258D6B8BE5E1BDC50425A7A6445DB129E27B1E03ECCF1CF9B49EC199097CF94CBF37525F88773C34688A5147276F802111DD2E24FE96552FF286D6CD8B1
311
CD7055781034167A2D6270BA601CAFF3C699AE2DBE01504B01021400140006080800615B7747438AFB58FA000000A80100004F000000000000000000000000000000000037434134313342432D303837422D344442302D414539312D4445383345313546373934322F4173736574446174612F446566696E6974696F6E4974
311
657261746F7250726F706572746965732E62696E504B01021400140006080800615B7747DF182454210100003002000045000000000000000000000000006701000037434134313342432D303837422D344442302D414539312D4445383345313546373934322F4173736574446174612F496E7374616E636550726F706572
311
746965732E62696E504B01021400140006080800615B774788E57597CD3F0000904100006B00000000000000000000000000EB02000037434134313342432D303837422D344442302D414539312D4445383345313546373934322F5265736F75726365732F33433941363938422D344631432D343542322D413830352D3333
311
363737373236393039422F7468756D626E61696C2F302F67656E657269635F706E67504B01021400140006080800615B774728BB58AF800100009E0500003D000000000000000000000000004143000037434134313342432D303837422D344442302D414539312D4445383345313546373934322F536368656D61732F436F
311
6D6D6F6E536368656D612E786D6C504B01021400140006080800615B77472CCEBD668A040000E01200003E000000000000000000000000001C45000037434134313342432D303837422D344442302D414539312D4445383345313546373934322F536368656D61732F47656E65726963536368656D612E786D6C504B010214
311
00140006080800615B77476180134D5F0100006B0300004500000000000000000000000000024A000037434134313342432D303837422D344442302D414539312D4445383345313546373934322F536368656D61732F52656E6465724D6174657269616C536368656D612E786D6C504B01021400140006080800615B7747AB
311
6E29EE51000000570000004700000000000000000000000000C44B000037434134313342432D303837422D344442302D414539312D4445383345313546373934322F4173736574446174612F41737365745461626C654F66436F6E74656E74732E62696E504B01021400140006080800615B7747F865834058000000680000
311
0045000000000000000000000000007A4C000037434134313342432D303837422D344442302D414539312D4445383345313546373934322F4173736574446174612F53747265616D56657273696F6E5461626C652E696E66504B01021400140006080800615B774773972D0437010000A20400003600000000000000000000
311
000000354D000037434134313342432D303837422D344442302D414539312D4445383345313546373934322F4173736574446174612F636E782E786D6C504B01021400140006080800615B7747F8BF1AC6E6000000600100006700000000000000000000000000C04E000037434134313342432D303837422D344442302D41
311
4539312D4445383345313546373934322F5265736F75726365732F33433941363938422D344631432D343542322D413830352D3333363737373236393039422F7468756D626E61696C2F302F636E782E786D6C504B01021400140006080800615B7747A233C2345D0000008000000065000000000000000000000000002B50
311
000037434134313342432D303837422D344442302D414539312D4445383345313546373934322F5265736F75726365732F33433941363938422D344631432D343542322D413830352D3333363737373236393039422F7468756D626E61696C2F636E782E786D6C504B01021400140006080800615B7747BE89762363000000
311
880000005B000000000000000000000000000B51000037434134313342432D303837422D344442302D414539312D4445383345313546373934322F5265736F75726365732F33433941363938422D344631432D343542322D413830352D3333363737373236393039422F636E782E786D6C504B01021400140006080800615B
311
77476BF5873C7F000000A30000003600000000000000000000000000E751000037434134313342432D303837422D344442302D414539312D4445383345313546373934322F5265736F75726365732F636E782E786D6C504B01021400140006080800615B7747E81097FB0A0100005503000034000000000000000000000000
311
00BA52000037434134313342432D303837422D344442302D414539312D4445383345313546373934322F536368656D61732F636E782E786D6C504B01021400140006080800615B7747E3603EBE7A000000C20000002C000000000000000000000000001654000037434134313342432D303837422D344442302D414539312D
311
4445383345313546373934322F636E782E786D6C504B01021400140006080800615B7747C89C945B7F000000A30000000700000000000000000000000000DA540000636E782E786D6C504B01021400140006080800615B7747CA1DF9C9A90000007301000013000000000000000000000000007E5500005B436F6E74656E74
311
5F54797065735D2E786D6C504B01021400140006080800615B77473DEE336E64000000790000001B00000000000000000000000000585600006175746F6465736B2D64657369676E2D7061636B6167652E786D6C504B01021400140006080800615B7747D5E2A8BBF8000000960100003700000000000000000000000000F5
311
56000037434134313342432D303837422D344442302D414539312D4445383345313546373934322F4173736574446174612F636F72652E786D6C504B01021400140006080800615B774719F1F6EAF30000008E01000068000000000000000000000000004258000037434134313342432D303837422D344442302D41453931
311
2D4445383345313546373934322F5265736F75726365732F33433941363938422D344631432D343542322D413830352D3333363737373236393039422F7468756D626E61696C2F302F636F72652E786D6C504B01021400140006080800615B7747B52C99B9F9000000960100006600000000000000000000000000BB590000
311
37434134313342432D303837422D344442302D414539312D4445383345313546373934322F5265736F75726365732F33433941363938422D344631432D343542322D413830352D3333363737373236393039422F7468756D626E61696C2F636F72652E786D6C504B01021400140006080800615B77477D91047F0E010000B1
311
0100005C00000000000000000000000000385B000037434134313342432D303837422D344442302D414539312D4445383345313546373934322F5265736F75726365732F33433941363938422D344631432D343542322D413830352D3333363737373236393039422F636F72652E786D6C504B01021400140006080800615B
311
774741BECFE6FA000000960100003700000000000000000000000000C05C000037434134313342432D303837422D344442302D414539312D4445383345313546373934322F5265736F75726365732F636F72652E786D6C504B01021400140006080800615B7747E9B17F52F700000094010000350000000000000000000000
311
00000F5E000037434134313342432D303837422D344442302D414539312D4445383345313546373934322F536368656D61732F636F72652E786D6C504B01021400140006080800615B77478585DF3D01010000D80100002D00000000000000000000000000595F000037434134313342432D303837422D344442302D414539
311
312D4445383345313546373934322F636F72652E786D6C504B01021400140006080800615B7747135D86B106010000B20100000800000000000000000000000000A5600000636F72652E786D6C504B0506000000001A001A00210B0000D16100000000
310
504B0304140006080800615B7747000000000000000000000000370000006662782F41413336383131412D373244382D343738352D423331392D4144374545344137303739362F617474726962757465732E62696E504B0304140006080800615B7747000000000000000000000000350000006662782F4141333638313141
310
2D373244382D343738352D423331392D4144374545344137303739362F76657274696365732E62696E504B0304140006080800615B7747F270F1330600000004000000360000006662782F41413336383131412D373244382D343738352D423331392D4144374545344137303739362F747269616E676C65732E62696E6366
310
60600000504B0304140006080800615B774788E57597CD3F000090410000420000006662782F41413336383131412D373244382D343738352D423331392D4144374545344137303739362F7265736F75726365732F322F305F67656E657269632E706E67355B773CD4FF1FBF73E71C0E67EF7576C9DEF3EC995D46C6A1EC50
310
46649CBDF79E192942562825CE965D8A868C2842C8DE9FDFD1F7E7F138F7078FCF6B3F5FCFD7EBFDFEC41B196891913091804020321D6D7513FC77D8C5070EC3FFEE51B21F068154CC75D455CC028A3EA68992803810109FDDE5D5CEC5521B28A1B422BF80741695D5B529DA1C2D058AD2388BDA9F476F7C2CADC939304173
310
DBF48A452BF8A700C0C70C3D121C1AA15A5270C22E2B9E28763651F7DA0D12CE11077B2ECD0D560B5E3DE2368B1E65C5E1C87384A4CC5F2D9FB8BE39E9B77C753783A37998F5CEF1B4FEE553463245C9712270880DF339E0B882A6BA713D865F6F384C842D440934EF264F4A304F8DE4EEFA1E2BF5E2D91F5ADD9613D6E31D
310
DB33ED31DB1D7916CAF091286EA3D31B9CFECB78BB0060245B943C4C040119FF780A74DD308BA9D028678674EB5504ECF284EE814DAED07440BAF649BE4B55DA2890F4D73E2D489A59EE54FDB0A85B59F2F52C4858A02705C4815A792B0C4A996A2023ECB195073E115E3E3647F64243A8338F2000BCB58DA5692C7E7C3D41
310
3F963FEDF3CF00FBB0F831A9D51360FECA43819F527B89FA260EB63C5DA676830AA3626A3693B23F1A17A0DFFCE3EE164E31B5365EDF0C89EF64D8E38AB0BA9A1117D7C3A0EC44F44F4023095E80BA610DE336D0F99593A88BFC5306E72DF98F7FD132ED95878DF2964EA7E43071359FD83B2BDF9C6B5BDF768F0F3C0FC351
310
199526F53D9460A34511F75D1B63E488178569472C91A94497807A3FD4A390C6558F26D416365C3656DE6E769DA9D8FC73774E1709812842DD8EF96AED1960F79D21B395CDDFE6F92CB4EB962A4668C76990E2EF29798C8941D67DA50F4A5F947872460F1F6FDB794E8A29FD7AC0C0D6E0714339CE258FB17AE8535221E346
310
4A10F29A0BE5EEECEFC5675926A89F49EB14E5711894F6586DB5754EB4D5DA9C6437EBA57DB97A24F8B8A8DB295FFD73266CF57E82694DF5166DDF93573AFE9C9C5EB05F8FEF8E89E0A8917B0B3724DB7BEBB53252581EFC3E38166BA131A3A5B42FE2AD00A769BBFA4458D2DE7822F8C4F63D0B8E21B285AE13325F3410A4
310
35C648C9D91FDEB109E73CEDA7BC796961AF79175E1A3CE4C5E8B0D009B0C9E29EFD98BC8E97554E3D8D838424E270F7685226E5AC268E021EDE3522D583E8F20C0BDE2959EF5BBFEEDAB32FE9A3ED0E39F211A86AA9DEBFC68182EDED132AB8BB794442D2D7EA9F4D8BFF52BC4D55BB165124EE90A42D101E67BBBB292FFB
310
4F66DE5BF2300E44546757DA7CEF8932BFC9F92A0707953491A55C5A5ACEDABD9FA1AEA01BAC3DC5A24E22E7C47213493996EFBC369D086ED9397C9BA6C7F9855C7BD5E15BFC8C53DB3D2A4C5901A57ACD2FBDF4D1676E95338B2C2BCE65FDA4C64F5FEFDC7D9CA5AA1FCF11E193F2FDABF0F4916BF13FB916A224380E6462
310
A9815F2300DC49CC4DF8D055CEF76462F4B7A7ACA7365C2707891370BC1D0AA6203C44CCAB47084FEC057F27FFCD57F89B8B9852459798A675C66BD7CE572CAF71FF7E6D7ECF7BF62CAB7B3F1107DCD04DC55A3F9961700286141C94A4F771FEB2BCDA2DDEE0CB0BAE402FF1DB0100F8E475DFFFC074DDB4498AB7D186A765
310
4DDB1CB680D703D47CEB4E72F8CB13D86A4AA68116E26387B93FD6738779B34FEDB8E517EDF2BAF28D9BE93A1D3A164320E07D42E514725C29515FF361754213EDE06B079A2E99EB1CA82A02019EADEEB87B9AF005BD04BBCECB14AACD6B24EFBE482194A97DD32400685FF1FEF1544D1B14EFB1E7F08E6D2CD2AF52DE757F
310
35F5E62332EE88EA26417AD5C3E0E319D68F25414E6D672BD4522B278C57D18F0113921C71D96527E091F00CEB15AE23D24667369BD3CEFA10C7549D930890BA4366F4EBC55F01F746109F98ABCDD5A3EE06619C6AD78AB33E48E4C9BD21BF7478B385EC05C4F8987E2C1BFA0A60EBEDAA0AE0B015C2720ECE180FB6F2DEFB
310
EB822D96338C9B63822183BBF52FB664A7AE57003AABCE512BF77E7E31BDA2E739AC4C131657DDFE5225E900FB56CC01CDE808FA4A9C9DA16AC679656BB64796283D89812B8F91136AE18EE5EBBAF47A73BE3C153EB5D4CD491B4BFB4FE690A4CF9ABA08C0D8AA64220C438C96EA6CA80B58FE5761E697B3A292EB9FBDA502
310
FA863E49FE694ADDFFF9D62C520BDD1A22014147A0903A05B9B729F54272EF83931FEEC057BFF8C8055C279EAC5C0011804828734024F6CFA319C9CC6867C727184465CD9BB7ED386AFFD96B294A85E3802FAE47244602D8273615952B98C4F23F7EAE4463D9D638EEE374A20959E0FE519C4CFB0FBFE5DD80C2AA3F9DB961
310
D1BDE57E67C9BB47B77FDD74EE3094F5DBBE3EBC1FBDB7393F5116263009E2EFE1AF9A221B2AE234C902BF70E9F280ED23E73908361565964333A3F01D0B006AF32FB21AA1316744B489D5A198E85299241735BE559675130955C902A8ED761FC0DBE337A9F91919AF5CE32AF902ADF9AB2615E00E8A94586BA1A90839B618
310
32FF1BFB76D2EFADE6DB1BA04CCAD3DA649E7E2A0219F592E22F2AD54847EEA8E42271011E9074F8F3DD9FBA6CDF88FFC9FC7E811AD1CA8F4557CE4AFC7BBEDCF0114A48689F20A584520C74DA8127124B767E2FB91A6B186246727BE63C9445BAE02088D58B8EFDC0F1072407CD9B89A13F6303B4A928F593AD489B58E686
310
9325790ADC406036C591729FE14021F94B7796BB11848D463536A092A26F077F94639F7CEEE2A724C66EC885F4A24F8B8A0AC321F8FD149BA529460FAA34E4663C02D41FDF80BCA222D42F0ABFF8490F4FA74C673807C2051D8E467B47B616072860069A9A303ABA9B319D58404461401B0A0F9BE5E1E151C14BC33B32ABE0
310
3DDE91708DFAEB15E7C0D593C86BB7D7EC17BE56E57975F077BFD5525F3A1A361D584A75E08CF29FC7B44B2B3085014F3A5A14517377C3F6B8F37E59514C3B12F8AACDEDDA4DFC49BE5710101534CD6FB6DE15B50F11A09472AABA727F0C49D9CB906B158030065F48EB3625E010CEC1D511D0053474B11E6A4F01C0D6EF1B
310
ED3A944FDEC70E0DDCDC756C86545910E0DAE3BE3AA9A404574C2995CD5CAF9549226BC94B4F4F0F5F9086F418F6B32346464610D8BC7391D3C3A3CCF04CFC1FB2A3A3170E369511868F14EEA4E5E438CC73DB1F3248AA94B6B2FF33B222FF3D1E7BF146CAD229770158063BCE4F5391964DF62F7E52A7BE0EEA829C9E13C4
310
C147D6F93FE59E111DAB5E4594D6F3CD1AD375EE039930EFE5AF2BB2D41C83C7DABD8C659BAFBE8FAB392CA634F3D15C1D945DB4588D2B0824A4EC928AAC565557CA2F0DAA588CA5BE30B3A8004F7BF005E96CBF891D7F18112A3619FDF530DC8AA64954258E1811789B5189B49B4EB53F5F89F7D37523894F3EB57B373763
310
C91E502F52CC99EB7BDDF933FC324C4FFC2561DFFA7339FAFDD0A4BFBE6D3A8FF9ED1FC49898139864602458968913181918F719CCF5A68B2EE9C1FF050E34E63107003B8120FA982C21B30A874E4F5E4B38D5A8290C4B8D9BE48A0BE31EA995BDC37AC6DE90BA17D259DEF53605D55922FEB1855D915B659FBEB350EE0DFB
310
2F9F766E1C84CC8964B75D08667445EAB966015F63A18A9E0A325C1B3DC628C0D3CB60F767FA93CC65F25458BD23C3B312716E5F40E5858AC06EBA9AB14F95DB99147B832069201541D09A0D856E12C629CF32683760EE855537D1901988D5EBC156676C7DD51D7207CF3267AF1D76C2AD867315E44618015313A98B19941C
310
696FED3461CAA9B5415F918556D7802EDACEFD6B2E45853A9735DFC9DBF7E440F9319F8B6805A973BCCDC76C069A9144E51F187EDCC12FC31B5DEAAF0A76137199B106EC84ADA6B6EE697D4E6A96E007417F4E880E8B1E89B4BCE9D81EF611E2ED8F0C1A6C25F620FAFAAB656A7C42D464880E8AFAB0E0FC8EA38CA9A8AEEA
310
EE3E4648BA4680270A89743CDD3E6C6CBF34B7B640EFA285ABC7EA0A1E28F3CC963D114A80123EE66D0AF7D5380EB41909B605AB4765B709B808590458157E69BA1378FEC4B48CAF6A730E3BE3C5EF2DD1A5EAF94B1DDE50CEB55DDFD7EE9A16747FA4B223359FB1FCC69E1194892BABB93A1D5C4E807AC0EA2E30180811E7
310
7A2291F6E7F7FAA5E0F60215BC6024E48DE436C511F0628B8CA189982D4D83CCA17D305A7E923C37941CFDFDCD93ACAF735EF5F0E61BBD3E6C41A59B242790D3A3BAC7064DCD89AA2E37214EC839820949D5CAA31E240D2948E48F690298974A96BA9A8432BC90F5071D6537C9666EA4564796B7AFFFA548077BEEA75F6308
310
3435074BA182F3699557397F71548383FDA8CA34D99B981E72835ECDA5DDDC151315173D05A21F651AAF8524E88209E2E7A737ED1045800CE3390050BCFB8BE588DF111617874C62575039CA588EEFDEFEFE319B739DE2EDC147092A262611E159650E787917885EF08F1F51B8F2D8A71D60B58B190FEF9541A1BE94BC19FE
310
A50784DA1419FE4B0FB51B8D36B5FF8E1286FD8AF42B91E59A5F1CC4D60174E764045FD8C57B18209B217F89A62252BD20BE0E63E12B8E8F029FE19E0E8D0870F58721A557082250D5424F7909369376E41666C0EE77CD87CB283F661D5FB6D0DA023CB67320A20DC7BE661E9E1BFE5463085C557DA1FF9BE835733766C3D1
310
39F2CF9E2208873AD0EB4814DE9E6BF2CAF81614D4D43906ED1C05A3265CABBFE192770FC2F64F940CB6B17B5F166F133C9AEEAD2641807C3E69515171DD74C4A85311513D6EC9530B3B601B6BA3EBFF3B5C3D2F7D69765141E345F75433953D013ADDF8F6AA7DC3F4A7563FE5C7D367937E2900D7EAD0F9FC9A4A1A9B5BDF
310
1FEF08532660C01C5D6DE22199AA774383E306DAB87E301ABB7D213887F9869D4942D0D71E94B27EDF216A318BD488D45DF84529EF575AF3C3938C0AAA0215B01994153E2054A0B894DA5C784980633AAD48576957CF4AEAEAFADC7C587368551C73DBE1E57C58AC713303A8BFC258BD04B51724459FF9E24C03A81E0E0679
310
CEB9B348C0DC998FEB9C6D6EFA77D247CC8F92D3848599ED89A23218D0636465AD1CEEB7DC140D7426F83491C4E8E8281C2FB35240918FFECE880CA2A42D70E8B20B34DF5221C7DB0CF90ECCB9C745B37A47E9B716FF7A97B7A252C1F3814DC7B1E1A7F72B8751D524EF7CAE45B0C73B3BE7D08ED39781B380DDFC9AA4A474
310
9C9493DB5BAD07A6EA6C092FBD0E85DB004DF06B8C9D3089C5320187E4CE1846158C7EA7DDAE8AD9AFFF21AA3A1026BB06A259845E8232DEE62811A4DA9CEAB3A4887320B76E2AE5615EAB7BDF738CBDD01F1E64064BC13D9EC53576751CA8CACD58B3CEB0E6CA585BD089B2A59B9FC101403387AADBDBE70586B93D64BF3A
310
D4453EF9C3B6A93817E8346991798601344F79A83C51F3D50F7BF2683A3605F51A72449489E0EE6169C749C60B1035651103AEE24D24E51A759C840DD3FC6504DA6FE107510E447B43461C79D22970B75DE5E1BD3007D1AFC619A4A4A69B5626AF5E9B8374E20677F77E2F8E73DF868E8BEC7EBA7B6A75EEF7205E1AB9486C
310
B642741D6E03FF13FCCEDB1C4AC129886268B01CDF4B124AF797CF784F3C6DEC97A17D4B558070A0F1C04DA4FF9BDBF34159AEFE958479824B3F58EBD1E19088A2AFDE501B6F2052368A3FD0E650A179EFAB1561E1D27527077136E652676C3670F42DCB3352F48F6BC86D2C3B0051727E41A0A4DC6CE2BE9D47F5CAA2935A
310
3C0539AF080665997194ABECD723B08129CC5B6B21D2E7D54CD4D12610E7E9FB8306771A89576C7A982002775ED44F3F744CF21EEBB27A631671D921938AAEE3EB0D19CD1E083727F607823E817BF599DCED5394E37EEBC2E88782E638920CA641EF74D4CDFCDEF06F4278ECB18E31E7E9876F2D783C8BF429C75395F57E98
310
C2B495A3DA077EB3AC3C158608B6B57FE3EA48484D9A480096FCEE0DE880950E7E5A5714131C5C41AAA29FD19AE81AC145FA1B9E85C7169A5AB837B213493DF7E9AA4B5FBF9CDEB36EBD21EF1181B7CF7366AB2A951D01E37AF4EB835D1BE8C117CFBE7625D2EBCDB0B20C5A4B45CED0BCDE3EE8DA9DA78C2E21DEAAFFD119
310
7E463C33CC6A80FB785669B856EFF7A8CCCA2841B5A5369173320B1170C368B2748D81062EA0296E5E2D95D7667A4A46D98A6FF475C76AAB0A8C8D45E226FAFC9FE0133EA9F60111F99CA81ACE03A1D14C89E8B0D69079C91464FA1D99E651D0EAF606F345C42A8A1AA9BA391031582B96D5B4176A77AADB01F12FD298A75D
310
EEBB2C82F0B8650E880722F8DDD90C56A7A058E5FDEF1AC93545BA27367C76F5D8F9690CB6F8DAE141EDD7971F0FB548A2AE435F224D6E5954CA155512F7332029D5A1230854B79F258EC5FFDB09F5F6343A8EB193229B7F7E79B3E48F8E183860B38C8269D1B53738FF1E0BACF6AADA6D4869E9DE708E79B5DADCC09B1BC7
310
6F649731CFAF59A83FD8BAE4C749D66FA87A3810D4D62FFE826FA400C0F325D2BC0F3CA35F5847B82A2ACC7961745C823E4D863D54460AF792CE6F79B5C7A33B25C3AEA6CDE15A919B6367D781E9D44F61BF828672594A3E1D9EDD6DF179A81F27EAC05B936575D73E05C209DDD2115CFB705DF9BBF3C911589B3640735E9E
310
618FC9C36A7326C82B2205E244C55D56FDB9D5DC93CE958D4BF8174D2B3DA54CB3C09F2C2A6DFF73D23B2197355761AD421EC581284A7EF8DE2CE3497C0C804D49B41DFD6A7360844E5BEFFB495CFCDB97A4595911CDBA623274CE852B5E278AF0BEB1770E9D37CD977B2766A7DED0E94B840E1E95E8C77DE5CB6354AF7871
310
427C28ADBEEF7BA0A28E19DE9ACD75F379FE373EAE6DDDAE3834692F9C2B03B4FCA8FCA9ABE8EEEBEBB725B88A7C90941E850682CA04061A7DF0CE82ED49BFAFFD42C309818FAE14755CAAE78B0F73243ECCCAD7DF58FCB9CDFAE7A4D3E6671A613639130D056C8383C8F4FCF4808C331E544DD26E4755D09EA05253B3049A
310
1E32587CC25D72E073E2CD96D04A71BBCB0038FEC3F53D254199C3CDC67CD66640269431860225392B2CB3ECD0B4498AAE78BA1994246AE1EE78F2EDFB79F6C6CB6B5E279C4D373FBC21CB2698C9ACBBEB6A4BB6B39E16AB0E421CCBFC7654D81ED86022F9BB522146F9F4772E2D0E4FA70120C95A85A417BF5078B232F475
310
4363EB1750B2AC2148EB46B1EA72AD9B4D23ADCBC589D70106C3EC2ABEEED84DFE28E718C6C83502C28E9FDD3B09DA0A6F6F7B72B706A31C9E2A331EE70DA56A083D2177BFD63C55B11D8D949FAFCF90B23A1E24B9B5018B9A17E99F2890EC302F330FE7936E2C23F0D237EC8916F5166AB84B62A21BB0B950146962D754F9
310
2CC2C8877BED8FC7B7B25726DD19545392570B3A2C66B58F027BEF412E552D12A588C4A3CC5C3193FCB3485EFFF700D0B9EEC077754A33DC1FB9E25AF814628F91DDFECB667D3F7690803F38D13F8AE39353523BB08FC6760144AFA2CE28236F65EDBB3D5F59A57D612B99E3D7E5F8A851666BF9B5A6658EFC96EEB37A378A
310
BB0EB3FDDF1303AF32C41BD1C8560745D7BD81066B0D6313359CF488563D3BA3F8E2185D1FAA3EBA1397C9D0E3DD232180A4DCADB6AF25DB3AC3CC26589C8239E66E81547BC7E2F328F9884764CA37EB5DBE390DFC03A5246B456A7C3684C4377D0EEF9A350680FA9A077E8B2957B489E09AB1AD41316944C2254B5984830F
310
691C93CAA767EECF976FA5647538830B5E63236A6F0365C1E0F3E327F24FE35EDDBD7360B0F7374837409F7A6311BECC12B7026D4FA1AE204FA3F5FE904B1F420C7A9044AE58E403E7C4848E7DA25DC9EDAC79DD756FAA26B9EA83ACE8A214A2612A22AFA19DAE7DBAC5F8CDE1292A485F98DAC731A29FE01A3966E96BCB9F
310
B5A4C8830E1B9AF0C54B87FBE221A097036E5D28D1F869F810C06A9BB0AC0612F69AEBAF893C6E7AD59460208BAB3A6B09CA4F6BDDAB8CF0D1F84B72487498395A70DCD754796E271099A567A55CF242BBED64696378BB6CF25EF0FCDB589F3A82F1116D010A9AB9FA4358809EE0C973A2B4229BAA876A70B03AB49CBA7FBE
310
71DB1832FFD32F9BF2C8E98075CACAFB36921235D0F552B6A67E94E094097A5D7DF681B40623DA535ADA7A9AD8E9A62407D7C9A5AE51D62A17A83A23728DE86BB56115804D3F2675F2C6B87541A0FC497BF0CA86420F558C9859EBE9FAD62747E323E3AADC03FDCDDFE7407B09DA90B44E3185723C5381EAEF589765E2F7A0
310
99BA46695BAD60CEF3491B8A171F5F56444F7CE9455312C3498C74173AEA0214EC029833B34B650CBB5A5508D5091665309642791708ECF27CF11DB3D797D6CFE474453BD4BFADB768094B2147814D81C7CBAF8228DCAF5564B5891F5EF6A860EB2E323CB82AB868D8EA048880D63B0DE5341F1B3D53297B928A11E15F25E5
310
148990F710747C3509ED14909C552EBE3973246FCE55D00564D8310BC3EBC5085D08D806799B77D6C57FDF5E55837F9E934F09C03C729271B64F12D0A9F9E938107CAF7BF1EC8CF1BB9B42363D33070F4CACB425E605DDB0A34A12BB936DE286B9887A4E2E558F0886498BFF49C311D96C277CF6A9FC0D75AD0ECC5226D7E0
310
E3572012E56D7FDE4410CEC7A6D0F997F225A2055B8B92E3956E875AE4993CB3D4C9063AF98FD45E1BAB165640A43439A2C9181A7C355B297C0A0CCFFAE19B6FA3C2BA238A885FBC98B8F6DAF4B94B97304878DF4D8BFF6A4AEDF79E90ED4E68F00CD7299F4E0D83E35601AF0CBEF18C1E870E74758FA91F5131075004DB3C
310
FCF09AE1DABC11957FD9808C92E8A678CE9DBE40DDA0E0D1D505AAFBCBA208232BFB6FB3704E8985E61ADE53DE74152F5C7DE74B1DEDCD37DC3E8FB30D7EBA8B9EFFC3606BF90B8D438279CB7709FC7C00D327F41817EEA71CD9E49FE9C8C9A81C70915D9F0F15958EC5AA4C3BBFAF46986B90F188BDB24B89DE3C6F29EC3E
310
6F66D84856EE96A35E657CA41B41EFD8DBFA16AD6E91439EA92B40B21C053249F51AE50EB0B24C770FFAF40DF12C8436366819C48E36547D4E7B72FE2BBF10828583057814A668BDF183F6B2E58DFB151103E56303E63D00F39C27C4661605DB644D19175D02E3F0241E8FC3458D17AAAADB117CE9EEA690D0DB01E634878C
310
04C2C9310B69FCAB831151E3AD293BEF6E46B0ABCECB50F5939B39C613D41E81FAE8D34CAE3C4566B761D37185FE864AC32FCB71AEF39DAA5BAB88609BB980CD2F07A8F941653B529567726E2B2A58D079DD57E1E5E31426CF184A04D7B03B985F276D47406AF276FE32E3328BA866EB1FD39BEF57863A317634AA5FE46740
310
9B3873F5069EF0D71AF00AD189D17BA1974ECDB2D623E9E14086386A6AAB5807825C37B015BFE892AFD154920EC437EB945D958E18622E1E0FE2FA06557CE4BB9BBD05A2D40E774DA2B65473791E314B7D6C886820B2FCFE4AA272B3B8B15E7344A145E8AF919B5454D89D36D413E87211186BF6F645E5EC94DCCE8E1C7990
310
22E4EC9BC86D7A0F2AFB1FC4B2CE48F84B3F49ECE65BAD24CADCC07EFF39AB06BE9E6B27A059938EA7208838455383DDBCFCD967DDE4650EF92A14FF933C975DB20BD7FEEBC4487576485963D757D16340D9599FEB362F775F38CA4185A86F74B629C81B133644A3B18FD056E997E0734F9BE26D11C0AAFC669E2AC9FC41D2
310
81F8B2E1C35AE27BCE05F3DA295488096688719D974DF1B5D182DB7792288697F8763CFB43562C1CDEE11C4AABD5C22B6E33F6F389CFC3477C5919DC0D533F8A7A1846B7ADB60ABDC26C43D0CFC8910B7C15EE22675BD02702ED39DB77A87A192CA7A543E6205B979B9F5A6B512A3CA799E198B2D5797C0AF8D1D872CA455D
310
4D431A7879D4DD76110B5FF7F4176B54477A9EB5E4A5D11214FDA585F0382751D8E2582BA5D2075053298FEB8F1537304E32CB22C2E2B693DC0A760B1DFCA751BDC445AFDCBB12820ED85F6D5298933C7EF1211E9E057684056CDA3FEF3BB6052355E162DF27C59E965A8DDB7F9437EB72CDDA3A090DE65A5B2F50326247B7
310
EC67B73ACC7047FC9B353D6EE990F772207C6EC52B39DC2F3C0754821DAB559F7C1809C7D0DD5B0499D0442E0A6E391B3D5DB46D11E731E6794EC77523FBDAA242ED67F9FA1FB684255671F63C9BCFE6E7E896D51001A6113EF2298BA494E0B0980D1FA5B9D60796554C02256B1E0345FB7C6186B6A19D2DCA270416262845
310
FA4F42DB5D9B0A0B6F07FCA2E56C242522E001E0CEB734AF310FC8BFB57E38E03AACE93B3326A2197891E68452B26A6307FDABFEE0223D3C03C3C73D2D5BC054C8311F12004CAE488E5C29287F8156A2CAA4AD0D7BE6B97264E4139F437CE73ADF52E5134C52B819777C18B323A5924E4F67AFD13B1CDC3A61793A79FAF5C0
310
CEB718E441071E797C6DCCB9EFCF7E4A1E9F3DF3C2F9C9E8294E9586868788C972857FB0556D7A26941A7EEB9B580AD78EC40B85DC906B4120A563CA3B87797ED612D3B035962BB75F6515A393F4CB057F564CDF54F2E5A024514E6A1F901DB80C7E70B1FC05E356A7E72FABF4775B3E3FB8F70A2A8E7B6A94542BB3041579
310
78CCC999E707A29CC795E67A59CC546A5D47B368954CA7B6E75EC9E1F6FC73CE3B4F71F8CB1A6B15923D61EAAEB14626AAA9D04A26EB9C66CD1BE86CA31A5D8703DE04CD1EBCE4F5CCB62F93909AD11E55799A781A956ED27D3E738F4538CB04ADABC7DAEF20BC35BA6A90BCC1DC61BA05F20D8832FFB9BC9B15E2DB838A0A
310
FBB7E0C82A562127E0446894F427794C3037186F622BF24DE1B00AA10A23BFA47B2A180D6DA5AD6F7326FEB8C100C2D7142EB2A0B2A9D1008A09BA343D70E054AB69E2A7EDB783CBD92537FAF4A44D1296AC2792729104B3276C276C951D0CF3CF3F1E6B017720A7B8505A5FF9589365979678C36F1BAF759EAF57C60F1FF5
310
FE9DCF5F8E764FF25A2D06CF25117A8FED51884C13B2B750DB0E4F5E3D64124FCF11F0AD8F1CC3B3DA4B38ED22BF1CB2585EE6BFEBBA63FBFD44F9537B9B37BDD6B358720F98A8125AED4349CCFEB0E135F19E208A04CA7E2B10711185D72E381F448036EF57C9F874E54A971CA37A639E986AC0226DC5AA00D5B14FEA9192
310
234B3DE617814FC221C92F33F1D392F297731B567FD98FD91D989379AF567A65B8ADF177591DB90FBEA99BF4ED11B16E50A0AB1DBF1156D034BBE04D69D08F939D8E92BF525A1DDAFF80ECBC95D8F45D3FDD289FD23F7D8B452F8EBB34EC082DEEE68E18EDDF072060FAD2AB1504DD4879BF67099FC58F6E9DEFBF645D1633
310
4A3E9A127C6F1AF6132CF287E433B43A0EE93812B4AA0B194E03EE3FF91EF9C6ED0074A2F6EB18A96A7C9890B1FCDA1F2095E944DB911ED54C60DF16FB74C8CE9BDC7C54C4F14078CF73C2FFF1F1BBCCD7CF64F71407EA1683DBC410D226627F66E509060D5C0AFD611DE681D509DB8DD12FB1265B03C6F5C55FF4C30BD941
310
87FF692B4F152982502F193098A789526A038AB529A52BC0DC4FB6285CBAC10A8B8DB75DCD9BDABBB221E27D1F8DA9F5EE5926A1C8AA9BA9BC09239C6A7F12914EA3B59EFF7AAEC3FFCCE56F1C5C2980AD072793527565E774F4631DB178CEEC691B1F367BEA0CF2907E1D6B854D527065979DDEF002D8B2ACEA7CE21AE297
310
737EDE1D45B31233B73FEA35BCFDD0B09721FDBAF6432681F2FD10C3E9EFB246FD6E854B344ACC9D8A0EEF876A7314B49B6A499FC650B099D650DBFEC7638ADFD245E2B7839DA5AC5F7D5623FC0ECEEC8653FC9B2BDD1AD4D00A566FBA7186DD3C9CD26512551637498CADB950FEC71ADB9A5524285DE328B8EC7EC75D2345
310
AEC6A27C42AF6D9B92155315C80DBFCABBB7DA0FAE425C4FB896B15C9BFAC4FE67DF5A23D30C93DA4D8F36FB15D100050DA6062E22AEC5F4DAC4F6FEEF97AE05DE63C6D38F9E068A20BC5E3B6BCD75320C5090924E7F93640A7735B1A43451C2D91EE62C6238B797349E59890AF3A520DF4A87095F3ABEC2E61F0593416CE4
310
6CDCBE0E00E2523FCCD04408588B5B6C9DB6459C786CE378770B54F51DA3A5E1DF2A3349BEAAC234A6CF8993B598B3B25B4B113E353A4D750FA7534749430F3EBF2512E7EA3FD43C6AB9A1F765A58463B306721A15D224FAFE8C6F5E3432D57EE697DA0DD5A9D4866A8BCCAAA9DFF1F06047851408FEC060471D0E3EB86BFA
310
F46E4B5E60311DC3E3CEA147C75CF971BE74689507154FF2D2E92F15CDB2B9182B11459FD8ACAC5A85F174BC94A7F4EE4C4F5CAFA7C02E37BF0BC77B7DCD0C047BC316F562A01A441AFA7931CC84A28CB9F4AA367EB515778F29BFE61195FA671F4352E5E46E3A64773F1F76EE5EB36D7BCE9BCEAD837A4D77F8DB8C92AEEF
310
6711920D7C7D0F76B0FD0EB7AB83724CD35BCA7D36DDDF5FBB7FF6F04A91F3E2BB3B8F1A43CD659639507FF6331C5F697BCC782AE57D757A27D97F1AB9E0AEDB43F92F1B2AACDF5FEC8ADBAF9F814E2027003BA2F9E144B1938A7A04050AE5D953B82C45619165C813A10E76DD6906B3C16438064D14CDA713AEC420034613
310
E1AC7241904A49FBF87409AFB1FCB9B72FE7933A87D8FBEDACECE4EDCF6A4FE9FB94D5DEB74FAB7CFEAE17EE965DF980DCCA2D04134994F9A2E94D2265DA4FE6AA7B7AC15FACAC2B5ABBCD7DFF542C5314FDAB2E1B9D8B65220B8E2B638BE008E8DCA22678C820C5053664D15E89F2D735B51A84955E81A443545E9FF787BE
310
0FA700A76D136C27DA179A7C6E8939E01BE756E19CB292798063D8B97F44E8A27BCF3A614FEB8BE974A718E86F7EC99B53CA35FA24F61F2B07266684623A3D4CF073E511F3A10A8FDAFAF0078C577F4DF9D339FE7862E5FA47CF4344209E5BF76D783B1B48E152AD281B15FCB934DCDA49CEC5706B1EE8B460F435324A5CAD
310
154725E21AB8044B75A557A79F6C807B9340AA3D92503E866F4274412926C8C504E4D5EF8C0E68DD0B028781A6B4054F11CF18941F101C57CCC796773ABC8DED9CD91FE5788806C05E548895354AEAC96546D55B0E94A59F148D061F42AA398D822CDECA4CDE79E13469BDCC44FDC990F366BA5978C15F97ED80CBFD73B0CD
310
9B8B83A4F6845BDFBFAF034019473FB9A63BD55D3A4A7284757071574029A4D016DCCBE95DD679EF3C4880BF169422F8C89B68A988D2B13793CAED4F74DE7486C72DC94DF46B8E93D8E02EFCB1FF9B3BA10C8AE7F653DF94F4AF466CDDCEF5776687F7C4C14B63E4EED1719DC2EC482D7DBCC7AE518CDE3D5FF86D39000EC3
310
673C0044E1D308BF05F74D1B5F033A7D1BE7F74BC55BBE3E4A20F920946CA0271EB17BD2B80E5660ACB8A29A79F5E4BBA49D4D945B6EEF4A7EFEAA65E5555BBB57A7E15D2F83C69F30BBB978D2B39F1F26FC097424D39BB33CA3D87ABF64E307938B685BAD44F71556A30B7E712CA4FE600613C3E554B69ADE949A7CFE214D
310
F1FFF05CB82151EC6FC31950239F94CF7AD39DC473F6EA356E5EC2C4EFA04383CEFE985A127484366FBEE3C0EC4FEA363E4F6632AE781392FD45D67B63FB8DF70E82734F431FD3443172A0E30A83D60982D55FA6A2CF86DBA8382502ACC6CDEF3B907982EED1160E14863FA242F9757347E1544275CCDCF71ECD5F8621CBEA
310
326B8BA884AD7F825781923E66971F04010D574C541D8427A438A37EEF8AF88240EED7362C953F5A81DE2D56109CDE2524EA0F5D2F87308C0C47BD97AD605878AB8589E17CA83930CB5E0DCCD75853D68B1AB136594926DE426C367428E9334AFAFF90ECE221BB5DC9E5BB53D2CDEF954EAA9CD814F0E5725F1965DD458E5F
310
8487683AD86B9D0076BE3EE91EB1CECC5331A67A3F79D8B27587C12EC2A6A70474749F27B4C0BBAFB94B34189E88DC18964BE4121B9137FD516C7755356E50D6714E31ACD222621EBBCD1CFF81D87479056A9DA0E0B8EA19D24CF937DA89F78E8650CCBDC110AAB6C4E46DCBFD0446BA9E2060E81F314AC2031E88135E5476
310
AC0160EF5C0DD2EEF1B8B5CB2D198BE9A554A9093B5F7D7E4B5407DDFCA1D9C152FD97F55BFFFDFE802954DFEC8995B983E28AC92F1971E28F531DC407A1280EB125F64A72E617EFB27DFBCEDCDA2D6F2BDADA36873EE46B9BE1782998C63DA7182BC383FB6FD15DA472B175D7E8B4FC88F38D6E07FEAA3FA3CBB8F6B449EC
310
F14D2175E5C5CCA3A42ABF24CA6C9395AF74535F4DDB38CB84F56614B0FD32D7E19CA5CF988DB4449C40E23DF2B16772594554579094450F56F253CD25EA7F77366FB1CFE79696C428BB64D5A41E986189427E5E4D7E2DAE3D5BB4972B3DC44EAABDDDD63A2264ECFA5C786EB0EE1FDC5BE34FA0F08376869FD1E61EA06CAE
310
15191135445EE8F0394161C3266A596AA035572BB0C8876180D8B9C77D307DF9DCDF7365ABDA6F3A2366436457A4DFC1F259666569A9E4A79C817BDD5610E5200FCE894A358EC72858D50EF67545DA81C6FACE3D457BAF70367E1E6BDD9A952FB4F56247F58F523B97E640246051A72F79BE42FFA0B3187F63097F91C48B86
310
8586F714B0EBD5A00A8412C1236E1298F60C72BE6C96B82B404CADAA304AE9F303176B14BA53FBC2D5E86377E35542019E24D97B96A49B2C0E5006E7795954DEAF5DA58958839043C6C70BD3B1B33B6DC5C31316D8A6923F142E26F6711A2258AF977DDF1F970ECC4F1F2B434B96D81BEB6E89BF3BBB3C7C8CC80505070723
310
D6D7D7D3C8CA27CA164A26024FED94B12A86031867241DA53D929636DA600F050BC40CE48B8BA03D69224720DEE2ED2127390BDF5E6EA64527BBD4C4C63FA76BB801FEEC0E61218EC98A8A86CD8313781617877E66692839B9468CF4DB8E50A73986E558E309C0D6F676F921BE02F1185454DC75B111572FF9D27D85EA14C0
310
5AD7271225B391C4275659CA4A43759D0BA44639BE4C30A84DB7F67A41399FB95CBF923B1B1672ABC807C1590557FB18D811983FA97F5E609516D62281D38B1281F68FC75528C35E4CD7DF0F7DBB5E5DD69C414EBEA2F4A5B241B996BA77AE6C772E367408C633EA3E438B68563EA8BE7667F3A4C4FDEEA52ABD78A2820F44
310
3B7914A15F180018D231E64519C56A12F6CA7C8DAE18F06F6B769DBF92329EF6A5D18FBCE600F36BD8E8198DE5CDAA96181F3A756EBA5501CEE58F497EA4F418A2B82565B9BCC611713C0B708CCA1F398B78C5F7D03B3437CC18F13061F55C7BEDADD5ACB1DB0E36D3CE47FF6EA1A563A57E9649EA5D14D1A50EAA45746338
310
1C073777EF1600607BAF6428A7DDC079D47A204EF1E1F1F0589FB054D45E02CE623B3823C317C601E589E22B1E88B448524B86A82828E32345EC18AE17214B42F8C41C6D428016D9BA31DDCB47572561E5A402E5BA4FCE55F78AF7268524AA04130F3A20BA5D1E9F9948EA48FC8F5314FDB35E21898198060034ACE5E3E2BB
310
CA34092518F275190AF65F45867FF0900AA4B81F25427414C372BF51DC29AA855C5428EE1EEDD6B849AD60F6E73475C2D2523F8A2772C840A478DED18A8C5C91B085F255DC4F54EA7AA8947354FD17ECF8FB3B4A0DE7B483CAF3A1165EE05BBA413E5C1FEF3DE1D6B8F2F3F3251C17D9FCAB48A9AAF63AC773A0E413BBC46A
310
9ADF84A566FC920E4D8C52C9769EE3301CADEEEDD92B312E02E2A7E35B7F1E7D203FE5A7D75578B06E99D0E46FFADB8FDA17ED8880390DA29094202D6F645F76F6F96409CDA05495A96E84B04A00D1A6C6C81D7F3DE9376E828CCF144EE50E364ACCE7237EA0BFB5607ED1AC3CFE73794E5B61739D14DF1743441B1AC98F00
310
ECEDE9E7301FA29755FBEFA68C91EF2B314CF510537EF1ABFC9A762496280B546F5EDAAF8A5B387D469FC9A878A92828C88608453ACEC6094DCA54111E7AD5B2663DFE2DD151B7F123B9F4FEF8EE36AB125FD7AD52A59B1B765B3E3F73E3F73DEA93875004D2AFFE3CDE9493B87A9904DD052028949041A91DC0E1BA47BA71
310
4343FD5B25E0A6A09503AFC17C790058A836A324FE31D7893512E28230332F153181C1E018E1124EBE1BA262AA428A518237D1EA7275E48C5C561BD19ED6912EDD8367DA0F31E40EEAE9683DA9257525AEA7B632B97119E17145A90231768A4F3B9120FF32E8319B015E3CBE26F1A754177D8185345817C096B0CE443A955D
310
13AC15E1FB5DEEA0239EC32A3C92241A237B0B02FFCB4F93CF2B02570C8D192E2F2A68CEEB42F12E6F8CEEFF46C251E22B4341C56FB08CCE550E7A9D6F4D6564B9EA52A83D5BF2C6E03FA19D2775E15A8A7ACF30A13C259EE7F5EF2AC3BA354F1500E1A07FC63FB4686E2F12EC69719F9ECF5FE3F35598DF2CE944008CE78F
310
0911BA5BE5D0A34E0098FF038669C26030BA9B300303039852A8F6F496341737CA7E0D2E3AAA36DE0A70AA7D9CA0D54D9AD84B18A44C9E625475E1C97B93BEBB38DCE7D227E67A2D00F531436136355F243D1FC0D712C5765754FA22FCFFAE97919161F46D6E61ACB37D83777B385889770B50765B127768443A5C4D3A4E35
310
A3151111F146B7CA116F918A049F1C272F2CD7976C69A0068773451659A97E0F4A08FE604C3FF6CE7385DB19F4D3ABC8A0D80DA8A42096AC377DB49382B36E270B6FA7570188B4B7D1DDDDA82ACA487CCA5D38BD3BD039ADBAFA4ACFF27809239B722081E2EB9F145320553D183F28471C388BC8814E5045676767AB58A8E7
310
2D1CED2CA731379515D2E533E4CF0B39DFC625F97AC4836831A4DE330E87A8126FA17EBE583D614E71E22A8DBF2825599743E0640037303E8E1B1E8EA4E1ABFA4F62907B5E4E0E5DCFDAB417C36C6848A2B8D15F1E505434C0707E16B1CFC2A1C36A42BBF55734F8F4301DDC2A5110CEE8C0747F69519265012A2174BF4E95
310
5ECD4FDE095A3ABC70536B7AD0B9D7892F81287D667C108703C9B66A221E9A0929D030008F77FF6F5D2108EF5706FC87A3069B976F7C9FC3239D13D283CDEA83597461079FEEE049B0F392889898B7D87D31F8D60ED7B56B91823A8E4EDDB36C6172ECEE42BD42B12CD67994FA0F0DFAE9389356F4CD4425A4B8AA55CBF7EC
310
D585C6A2C2316791E43D5C06841ADBB226A87FD61515FFBB0167B74E56BD7F3E90A57A97FEDCBDF483A0D6699A8C0849CAEB4947FAA90D8E332D9DEBD9F4738C37DA0CAF9CF3DAA68BCB67C420459C7A64498D6E848E5CADE92BB6901F607AA331104A67F7CD650EE169B1DAE94D2C31C2F993632259B6957E246EFE4C5481
310
107B07118607700040E5812A2A2A38DA0076875258C753F60E0F2662C748EDD5F3F3686B8FC3BD6FE631ECCAA1E8B1C1E565AD117E54893E79F4672E32F9E46B2A183DFDCF3EECB4D4D077DBEA0DA254D256045109670050129E9B9B1A9E4A11344D61497A992778095151510C4BB7EF2009B63AA4360635312E4CF668B7E0
310
D3D85A8688E2BD83B569439892ADB63461930D428E0DE42E4AC57CE48DA5CC1449530D8BD3D6A0F08DF20C8E8F570F2CFFFCEA286E30969B4654D498A58D9DA782E19FE3F002181838925592C4A1EF0B332D88B61A92C644547BED490D3A42CFFAB70E36D961F694F6307F72FF15A1C79D5B1B5CEFD353D9E2B52566DEC8F8
310
F09CB3E8359C0F68EBBB7898243E34E12A015B2685AB303C04D3A9E00671FF3DFF0A184E4A2ABEB2B666AF5B3A209C73D8EF29DCDB069C9F391EEE9DD0F74C7BCDE16F8F02E3B8816122BBEB50665775B600549D8BB33A54A6BF940C028118BC6878C79958D6784F9DEAA6E26748386FFAF8D0D0101E2847B6563F5D8DC1D7
310
8F787BE00E2C941AE12148D4A81599FE8F68D4DA5CDED75530ADE138240300EE13B0FC13A1687FED6774662C05A2B7DFB186732F0D7A93545D8B0A6390AE5054D9CB582DA846D7A061B3358B45E2B52DDE63E114397EDB7E09233A579155D795BE76102CF277F4DF8B188C4F2879BEAE3C08347124BF9ED23B128259FE107D
310
31E34A652F090B30B39E0D9AF917B76A2806135621A8A60681F16AF216514BBD02711585B5B1AE823F4B2D0369EA5B6BCB863072727FFC871CA6C9AB79A814D989057E9470A3D238BC87CBB4A0EA49AFE2B86F22E499793CAA9047080450166BDC357524561E258C77CB697F1ABB32562CF87C3B7AA12F911EF19FB3E5C022
310
22E887D08202A60A17151F5E053A86B437771088B4FEE14D652C43E8D939995D34545E12E2FF93D4E366EAD25F10CB7DED141563C3D0C447AF06078A91135FD4B9611583CB4BF3BD167F2399CEAB0E0100F8FFC305F00F1711717173138B4B48C83022295DE657EFEDD97F238ECA80F528AFB4F8D67AD4E2594B9A3AA86D74
310
87EFC313BA95745C186F0CDD84CC12DC9CB0424B42203D351FD9C0A3AF10CC7F388E0329279087386421F194F4A29464C1DEF7EF8BE515E4A199DCD5B909342598D8FE6A231F71336248D5CEC5454455C7BE383B3BC7B260FED27F703FDC39A170F3827239102F59D4DEE7FEF82EAA1A5E4BA94DCC4CC44E7E2EDE20F24244
310
E4454369D2E87C3F823F193FD4FD27E1C23984B01898D15ABC20711A8A558054951A6AE280096BA36CBA439603B7B0B4C45F248C14B2383B4B5CD8ECECE4FF859AD4A6CA2326D020EF090F4041D28DB66E5256B56232CC52829DE8060BAE6BBF37D4B7469B822454FE93210A3E8D15E69FFCF01123222611C51C4FD0A041A0
310
CFA2471CF6BE38D2B20FA4C3525B5B8B586759475CF80ADFE67A284AC24651E52B8E683D24C2622642F27E7C3C22783BCF63648BC398BD6CD0D9C97E7E7E3EACB6126DB7A6C1FD9F1031302EE67ED96F22B77C7CA0239BB324207559B105E4693EB26EC46182A92C9C0DBD24F29B31C5C5AC1F84300E0E17CEEAC15F5736FA
310
4A98971E2F1423BFCD68D4BBD5F86E74B40A369F39507C88FCDB35D2DD8DEBEA4AF999E23CF2816D204200DF6E611781B9884C1AC8888B4DE397320472959434323A5A36B22A8E1F721A270DF3BD65E4A31C11FF048AFB0D8B7B6881423793963A23CFCE935FC189ED36FAE35C46DA3574C979E4394BE52084F3081837BE03
310
3396D2EBD80F1F691B273F660D2B32FA27A33B1DE4ADA5F0FA4651511102DFA410DDA86E065272CA314D5249DF91B06BB92807B28EFD54F08F7B525252782CD276DD02E6B0319B13DF87B1F6361AD6B28FC0D711CF445429B9E5A433CD493051C49A9E03DDB1B147D880253514A5DED88009018620EE229101C041950E2D8A
310
A8E1F5F5438E0C0C0C60EEDEE9E3E0C051948C69F84BB7B2A48A1F3C8EB9E6864687F4F4F6F6E2FA87608ADAF9C5E117B7C1A737E710769DA1D15ECE6A84502AA855398712D5FB51BE92E4EF824969CE18278798AC303C2C7980DD2500ADF8FB1E6D6C2FAAFF9987178923334A244758BAA01A9A1B70FA5097D01E1CC2A58D
310
AD0EC94CE6430AA9B0C10D75E3C6BAC670EFBADEE1607739CE0FC18A2587E3EC3058562014C64219C69BC269082D5C2F4A659278D585755912176D78A1B641719C2A394CED495A1AC5D583FD2F5EDD93308EA7EAE8A6DD396598BDBD3D4CFED62D18A5BDFDE0DD5C80D1A89BA62697B131AE7CE9A6594138582F1B37D68F17
310
49AC7CB67A70695D48A4A056AC1FBD4E82358CEAE38F54B95A9016F9000F9879C0D9D131768635CA798895F27D6F1614F11F2838A83611AA51C9A3DDB539D42979C29F10465655C17BEC3E2760B80DCBF609198C7B171A531905F3EC218D696025975E986C6B4C666666787271F202805577DD5A3EF0CAFAF91B62DC4B2DB4
310
217A7606282F31D8DDBC290593BAA93EA6353AFA9939B877978481E15CFC9F2755CDC00C538F63A4BA3E80AE009B73CA0185687D339A507D165B74290D6EE46D5C58148F020C3668ABE9EF2F7549170DC80DB41FFC1D678FF19AEB10C7133832B104B80F691B3138F97A92D26E551F1F110400D45AC71A9B9AC41A1A1B1DAE
310
ED0B0810638EFFB511D46B121C6FEA0F38CD00E03CFFEB9713FE1F9C263E4DDEC160D0497FA9A132BA608584057FB15380825DE6C7FC3C667EE947D488A09898D8E939C4953BF4EC9836344D2CC6B2971B2A21A572B06096F4982D2CC7232D46E8EA69DC83722E267754D777F97F96D5DA74E1E75178084D0E70F12AD33E5F
310
71EF2AFA599B2BEBF60A5BE475F444F240CBFE8143C334E7ED9150FEEFEF7EB020C4DBED388DD1D6A167A76F3CBF119B578AE8CFA7736ACAFA4440A1C47185638A0D2F3EB5BDDEFDA958FB13CE4AA4923D5BF840392D45544329525749734866684BF7F8D9D54D892E19BCA9F829A0F8BFCBEEA6CFDFC61D74EA1A645ED7A1
310
FF241739F15694BD835B66FEC5677E40FE69BD3F91AE402F036537218A401CB0828604AD189E575015C6F3F6BBC8AC79CF6C70653847254B31551EFCBEB5978B9DB85D58D0FA41A9DFE9C624834AA04949D24B5AE6D299E072D152D12097920F14AA92C31C3B97E28B6C2E6E9C23D63043ECBBC0A60FDF5BD0C33C127EA8A3
310
308B8B6AFFEB28B4455BF6E7AF4FC6222728357EB8E46E85053E6A8843AB23295BF838ABDA94658FEF3F832F147046B4ACD6F7D48E8FCC9618582961C898D1C7A253C91BFECBDA6BA18A1FCF70755DCCEE2222F41B76D23CA98D0CB3D95F0CF66D57FFF65E2A90F5DF40FC3187621E981BD0BC1D992787212688976B94A8F0
310
C6EF646624B570B78E068826F87CE27041A95C9A4871FF65CC17FCB1639629AD6A9517000D63AC231F3D741CB8430777E7ECF80CE7A3F73C0F162F7E56AA71F4DA80A33CD6ACEE78E2C11FAC03DAFCE929B106F8F6B3ED2DC71FF994BD9CEF4E9A94896EF1B6E2B7B4978168BCF0847A3D2A4F1B0500B926E634B174548E9F
310
BAD27153FB5FC36799B1E6C7C38A94E1F9E996796D7B485E635D5287A2AE76FBD11A341DB3F8F810385BB7296391973DC6C37C452A9305AEBBE0CDB6C566DB59FE60C8E94B1FD090354BF51439FFD1B48D725228FFA88C84F686F547107A7A235665A4593B7C34D748C1AC8D56DD5DA861EEFBADDECBBD65117E65851F9035
310
1AEB65F0EFCFF4BCFEF24CB7A5879699FAC437A7AF9099186CF006BB923A59E37D7A36A29FD8D2CBB914A5E9D0A8FD212FBF796AE9A67958FF1D5D8B85F78F96219D4714EB919929241B6C018AAE0C02069F8D919961EC5DDFBFB7573E3AC8E08BFB7C8534BE6DE045B3CD63DBD71F7638BA2309CAE398EA3A7D8F98BBBC7A
310
EB367EFA5CFA27A9F8F2F52FE878058E6209C026453F8E7E8A237DFC389E9590F6059B397CFD65183BBF936E86896612A5B5FEE49DAC8455D026218AFEBEC12B3523A45B57B82C9C97E02ACFA1184DB18E48CF615DBF39C3CC6F0B4AE6BBEEA2E39D944E290302FA3DE33FA7E40296E2EF7BF1CD855BBECFAD0FD622BEE974
310
6FC4FDFDE545AE6E3BC234CADF83A0FB76DFB145BF3828AE3436368AC24989454F8FF70A177672C711CAA1A76107218CF948CA01F873520E7A2B118EBB161ABAD432932029628B6761590C98AB590C8C8C79798CE9F715BA696E839E9131A4BB68BE923F1747FBFF165331FFDD4D05997ACD168F12CA75348DAC04C7F509FE
310
83898A8B421181AF492861CE81E4A2DD0A30850CFA95E05F097FF70F9E777310D584A75BA7018922E271DAB1D785671157685B7D383D3E074DDB4F1E44EF04B07BAAC75A062077C54B9752C738C9D804D402E02851F3F89605AF189738C18C021D2139EAF72513824E10DDD3047BACC8521ED7E98B257D1166903B1B08FA6F
310
918FD7E162913FEC7D0EF4787E29C35FBA8C6E2C9C20E9AB30AE42CA2A01A090E7D010C1B5BF9CEE2A304BF3A987FB40D836979B79E18D70F257DA61E808472DD85B82761825779D6B90CAEB0F23360C6F80A7D7D77545E95B3DFF0CF96A827F9B5BCECD2C9698718417EF80FEEDEE938AFF55859D0D540B7FE09435583A6F
310
04874A0C7E8CF234DF4879722000167F5872CEC6BF3EF7E5A8CC8121E6A359227C8A29C95212F9F735BC72A887D56B8F309FC525BFB4FD767AAEC4AEFF249CFBBD2DE1AB9969A6155C7D8DABC307E47324C1F916C7BCFF40ABA5644E9FFB9238D19ADADA49D9610F01ABBA57E4DFCBDCCBB2B93C8953206C91DE01B0E2651A
310
6D6C31721915B31F7B7CBCE55466F6D70402788FA91D73BE4ADCBA99A35F17D6B83383704917D6833F0FA3CD45C926ADB8BC17999A4A0AFBCE2541F7B8CF4C2F5FBA611B3E626D64407CB32C122DFF4EF8674D6EDBB86C8F7C6A16D50FA685E2CCA34F8F7D1D8265BB0042E9D7F1F666F7BE5FAA5184DF58E12122A42EF02F
310
461B3F369AC746F96528AD208512AB56844CF75B97F352DF7995024FB02855385854F3798670D01CAC771AC3E1889EC25F61A20C1F8CAB46898817F9C47E2CDA1F286BF2F358298709FE567C91133E2638C8B53975E753EA8BFD3578B5F7186B7BF084EBA3F77BAC3132A5779902EC22AF2D2E79F42D324E083386DAEE9810
310
D1B44A5DAA54513C7A71E52A4AB9257D975B621308FE4D2141CC3DCFE946C154A3C1DFCCA7629EC69ACFA831634ADDA93C0388D2A9A2DDAFCF957C6995BCE7FBB6DC4EBAE79E63EB08E9A25F52F67076F7093CA545CA3053B5BF576DEAD4E0017143C5F759F32B2D6F145B52B67B48909B7C7FCA6586EE385A2189C16932CB
310
6DDFD9152AE317C430492A578ED27B72D85D40C7C93C097939E1B50F4D67F05334FE9DC362C30B7FF561B95259138ECFD9274C8D695C31B14D4EAA9F3D7FA8DDF652F8C5DEFA23284C799B7D94416DEE81E05A866302DC70192A5368EA65E1CED8BF107A1E2D3119A71E85DC1A7B0C1E93274CE04DD0F2ABC8AC7C987FDB00
310
2B6F81757B43502EF7A0D92E416494FAEEA4C9C090CD9557AA4D532F4996A272B94355C5A0E4974EEA9627476F30809B94D8D8D860062E02204643BEC7D0438AF800FC7E2B26955D595421E83C69E1A07E0E3122285835F014AD538188CF9737CE76D464A353FA55A001AB2526B84E985083693BC76FE211CA1D000679C889
310
E3C009832C87E1AC2EDD05C302557422DF0800E316FCAC86978A371F025A6C7DAA9F333E7BD160403A1A06EA75AA9888FF01504B0304140006080800615B774751464CB48900000043010000360000006662782F41413336383131412D373244382D343738352D423331392D4144374545344137303739362F646972656374
310
6F72792E786D6C9D8F310EC2300C45AF127987122606C71DD918B841D4B851A43646695A717C52A85029031293A5A76FBF6FACEF7DA7264E43906840EF0FA03836E242F406C6DCEE4EA06AC22492573150D1F66C60C640E8938CB705396EEDD86DE9B5042FE27813D640EA63BB001C722AF6E55CB61E4863F58284D5D3F53D
310
D715CE1C3985E63FD7F1B7EBDD617E9F1E504B0304140006080800615B774771359DAA3A070000211C0000340000006662782F41413336383131412D373244382D343738352D423331392D4144374545344137303739362F6F626A656374732E786D6CDD595B6FDB3614FE2B84F6B23DE866F95A282E7C6906A34B5BD4E8B0
310
37819669878B6EA0A4C4DEAFDF2145CA922CDB4AD602C512205668F2F09CEFDC8FDCF7873040CF84A5348EEE34DBB03444223FDED2687FA7E5D94E1F6BE8FD14B92C8EB3CA3E0D453824771A5FD6A6EE9EC5792297B66487F3A0B97A3FFF0BA53E898886FC00A7E99D96FA8F24C406CEB3784BD227638B336CEC7707C3368A
310
8D75B27B8693C7C655096624CA8055588F808AE4C0AEFF0B229953D7E41B6ADB7ADDB63957B69942F03AA3344A331CF9675C35E8F4BA71E5D8FDE587DE60A20FFA7D47EF0F7BB63EBF9F2F757BE4588BE16231997D986868EA6EE23828159090680B5A3C6A53DB35F937A5F8128536BEFD388A882FD16CDBB025922E256913
310
931AB0B610ADA29042D6CA82D351F80BDB3A815263A986B6124E7D56AD37DEFC0D20A45DAC94A5845B799A31D0B5C4BEF007CB358BD59A5E688A429C1146718002BA61988182606BA1A01A19EE2D9C14E298092D2A7A555EC1B06FFB521B97BB3C08B8FF6A53E1691EF823C952C119FD87B013F7D5DB80279036A7513696C2
310
66C704484C5C532C16DF393DF9650124DA05780FD60262F24D4EAF81D782C782D5529B7EBCDF1CD63C3EB45F9EB038212CE396279C59FA9DD260C5B4C0F83A8052E05AD7DD0995AF00FD2740BEE405B9A039460FFD435FC9CE7094EE621682769085740BFE58883F9E3DB96679788A502D565EC214DCF63B615A13A3767705
310
D2A9FB0C461F33470AB7F6710036FD4023EEE7602828886109E2FD6E73D0A62B08A6B008A77000D2C3AF6BF247041F051D88370D0DB585DF0E8A520ED3F4B393AE7E079B61D42F555593F112BE83EF82EF6CB9FEB8CED90EFBE4413AF692EC68443348A6ED0CD540AFB9FCB7D527E19167F2D476F970CF3EE681A3452F6BA9
310
17241403ACF03C5CA846AC3C5070F720C01189F354AEB7052A3F0E62E66D8E5EE1C3AD77FDA98CA0B80CFC9B5B406B3083ECEE339A7050B4A914AF8C84C609271E07A501EE0BA57A1BEC3F71783D1F22D65BF800ABC5AC49340F130F87711EF1F07D6EDE4DD10CC7123FB63DE95993DE783254C2A682BCF21E151A4AE6F93D
310
214E2E5CB2A8694B460D45B9F0A33E44CB36097CA899F2CC8B13ECD3ACDD161A42480F05B0AFB2BCA5BB5D9E42506F85A5C1B1E1D8036455FE96975CE75E5EE2D110EF89B7C33CC3B5DE5703A824AE246845661FC4694A23928A0AE52C723550B10C080485DD2AAA2D4648532F24197E8BFD8994D7303F46768107B554C6AB
310
D9DBD6A71894D9F312455EB9C59127E43F7A290E93A0A8D26E6160F71A37B4E2CA99E6573C83BD7938F3AC2D1145F72DEA655C50F876A23E7933F90BF030FCC3E151575028BD2147DED6AC6D0CEC09FF194350190E6C67A414710B2B7555C66B902087AAC93F7A2F84EE1FBB05B44EF7A424D8793408F2D02BF241464228C1
310
7096B34EFE3A1C5867CA9771A1E110959B76348002B973D014B587AA3E402A517C5C0A9A956B40281A418FD6499033295A4D58E842F4A3BCEDBAADFDD753FDCFF1B2DAA73C91E34BCCB6AD9CD6CB085581A98281874B99E14A3B1294A76ED5F942D1B8DCC6A1AF88C8F8567409D2421879A67C30213AA0D6FE217DC1990F81
310
742D3EF53978C4966C4F35458D9C1C736853B8545153756AB5D38160C7D347ADF05AF1801AC2B401F338FBC01F82AF18540D955F6ACAAAC62CD6573CB119305839F17185D6E7DFD70D2AB0D2F9F4178E1179695090AB0B5EC85D21F56D75AA571B14A444DF56578E678F79B88930E599919B05DE26EFDE8B5EF2CE8446C19C
310
CD9CE1D8B667FAA8B71CEBFDD178A0CF1D7BA2CF96A30F1FFAB391359A0C4D46D238673E49CD9E6979AA764AA2BD328C02BA2E1D054C156EB77ECA9E9B0AFEFF7614F3E31FF858EDEA6BC6F8B3761465BDC72BB2863376ED285A23F5E675E5BF7D16A9DBB3D8AB4AE76258A02CFC7ADE8268A4127EF7DA429156A5443BCF95
310
94F8CACC7BB15DF9E149A616D15B13446D475BCCAFD93F1F3EB5A429D5DE8AC0E6C098753819CFF5FEBDBDD0FB83794F9F8DAD81EE38C3D168D41B4EACC9BC445C26C3AE89E5A708A28AD9CA1C0DC6C1691C5098CA932DDA93185A20183B7408B02C24A9686DA00290795CBD12E870FAB918AA667813A8D3FE2386C9742053
310
72EEC35414DA8E3B4DAEA35F600ECA4791623A653C41E691D6AEA19CD13B0D4C20A390608C0DCCB3C4F450506FCC2B416D38DAF3A6A93855FE7F3AC6D1015B39C955EEE9828B94AC669D301D48C48B028876AA2279BBE88A1D843378DCE45929CC69E1248D0441BD11288483B1DF9384F70081E7BA5CB621F6D420E9349ABF
310
6A0705553DC36C2FE6EB15BC67CB2F261F8DAF3EA324C8F75C9DD7127E8D92CE0B8D202FA6502E18861433C1BC115FBC33BFB018DE3185E89E8211A05F0FE3E16FE6220EC3382A96CC997C5385D68FF0DE696BAA991F542E963D3445E123E7FA30B84A8981B7E9132C806A19E5C3D102E29A0194E1A962004A235C1770ACB6
310
7FB5443209546AD86AEDCAE111437D048EC45FE670B7A96EA84C20C11780AB62505B3EA805D76430059FFE0B504B0304140006080800615B774706DA5443E1000000550100003C0000006662782F41413336383131412D373244382D343738352D423331392D4144374545344137303739362F7265736F75726365732F322F
310
636E782E786D6C4D90CD4A043110845F25043C4E26191165C9645FC2939725667A63D84C7AC88FE8DBDB592378EAA6EAA3A92E7DFEDA23FB845C02A6952B213983E4700BC9AFBCD5EBF4C2D9D9E88C58FF619C25BBC3CABBCC8DF619DB31A40DAEB6C5AEC6906E4394170F097270972379CE5CB4A5ACBCB80FD8ADB0ADE206
310
E526365BAD502243C1961DD0891A7618275C065B61E36691EA69526A5A1E5F953A2DCF27B9BCE9B99346BF23C6C1875421E3F1B04887B4264A24F5DC01A35B0E83EA6F90F1174F503C3D936D74A9993A1858FD3E080BBBF530DF915FD7E8B93F49E3DE00CD5E88F901504B0304140006080800615B7747FF15A4A45D000000
310
800000003A0000006662782F41413336383131412D373244382D343738352D423331392D4144374545344137303739362F7265736F75726365732F636E782E786D6C4D8B3B0E80201005AF42B6F75B59F0390B113044D83508C6E30BC6C26AF226F3B8BA6360974DA7271430F523308B2B198F9B80925DB700539227A2FCCB
310
80A18E5640D320F996A81C9F32D6E9129A0D1EF74FCE750E6D57BC7165FBCA07504B0304140006080800615B7747817163FE4201000056050000300000006662782F41413336383131412D373244382D343738352D423331392D4144374545344137303739362F636E782E786D6CCD94CF4A033110C65F650978DC3F5911A5
310
6453F0E01378106FD9EC744D9B4D966422F6ED4D6ADA2A52F450686F61F20B7CDFCC9761CB8F4917EFE0BCB2A623B46A480146DA4199B1230157E50329969C396BF11B460A2326E8482A13CE4667C39C4B03AC44D0A9AA95D9E4A24074AA0F089E14520BEF3BE2E51B4CA21201ED007E530D0245452B07DE062721BE473541
310
7E2F1D088481F0B6A17725A5657BFB4CE9A2BD5F34ED2BAB13C9596FADCEBC3208CECE376D236D3C9A28A7617502380B4E652A7920FCA8ADEA956175BCE7CC47BD66CC1C6EE7C4CDB35652606C546D250296110231B1FA0BE6AC4E8E7FF87E7A7C396A88A741399068DDF6626DA0A7DA709056C544FCAF0B3BF02FF3B65F47
310
CB979BFB49C359D8D9ECEE93EB63747F2721E64998515FE30738483B7FFEE3624125AFD1F45ED9993CD7BB1518079F3622FF04504B0304140006080800615B77472D1AD26D7E000000A30000000B0000006662782F636E782E786D6C4D8CD10E822018465F85FDF794A4096E80FB9B3E884B742C8446D27AFCA079D1D5B79D
310
7DE7C8FEB339F236F1658357C04E1510E3EF61B67E5590F6850A20BD963184FDEF06C44F9B51503068B9C6909E079ACD322557A8B3FE7140C4BA158C21E59741D0868B2BBDD5ACA338F0716C9057BC6BB3712E4A9E5F2F6FC9EB2F504B0304140006080800615B7747A6D797065F0000008200000007000000636E782E786D
310
6C4DCB3B0E80201045D1AD90E9FD7516806B51190811670C8A61F982B1B0BAC9C97B72CA7B1037C6D3332918DA1E04D2CAC69353902EDB8C20262D23F3F59B81A079470595414B17391D1F19B4730A5583A7ED43BBE4025D9592775E5ADFFA01504B0304140006080800615B7747ECFD112DA800000026010000130000005B
310
436F6E74656E745F54797065735D2E786D6C7D4F4B0EC22010BD0A61DF525D18634ABB506FE00510A79458060253536F2FD89D5197F3FED3F68B9BD80362B21E25DFD40D6780DADF2C1AC9671AAA3D677DD75E9E0112CB5A4C928F44E12044D22338956A1F003333F8E814E5331A1194BE2B0362DB343BA13D122055543278
310
D79E6050F344ECBC6478EDCD76CE8EABAE5449AE4298AC56946789C28AAFBEABC53F3EAF09A84A1441B91F0101CD4780756578C173A578FFDDBD00504B0304140006080800615B77473DEE336E64000000790000001B0000006175746F6465736B2D64657369676E2D7061636B6167652E786D6C35CBC10E83200C00D05F21
310
DCA56CA76D41FC96062B120735B69A7DBE268BB7777961F8D5AF396893C2ADB70FE7ADA196782C2DF776D7A97B5933C430F15651E5469C55D70F80A4992A3ADC954792C525AE70A1E4D6AD9816CC044FEFDF01FE3FDE907802504B0304140006080800615B7747333E0CCAF40000008E0100003D0000006662782F41413336
310
383131412D373244382D343738352D423331392D4144374545344137303739362F7265736F75726365732F322F636F72652E786D6C8550CB6E833010FC15B47703366D2891714493F0053DF566D90EB5126CE447D5CF8F1D88D49E7ADAD5ECCCECEED0C3CF7C2BBE95F3DA9A1E705943A18CB0529BA987182EE80D8A03A3CE
310
DAF08B0685E1B3EA21C3C0E8E46C5C3648581394C9A8B1526D20F75E0528C42D353D78F1A5665EF21812C35FCB858B2B9F5489CB95C7688C5A6E522D939BBE68E580D5BBE138B6A443A77618D1CBF88E51379C09C2EDB119C8EED49D9B8E5659CC68D0F373BB708A072581911ABF228C11693E30DE93765F934F5A6526A33E
310
B8F4F3B6347F97E8B45AD13F6E7191FFBB456D424336B755E181E174DC63C06895D349E5115DAA39497607504B0304140006080800615B774707383FEAF9000000960100003B0000006662782F41413336383131412D373244382D343738352D423331392D4144374545344137303739362F7265736F75726365732F636F72
310
652E786D6C8550CB6E833010FC15B47703366D2891714493F0053DF566990DB5126CE447D5CFAF9D50A93DF5B4ABD999D9DDE187AFE5567CA2F3DA9A1E6859438146D9499BB987182EE4058A83E0CEDAF08B0685910BF69061107C7636AE1BA4AC0968326AEC841B28BDC70085BAA5A607AF3E7091A58C2131FCB55CA5BACA
310
194B5A3E7882C7A8A74DAAA7E4A62F1A1D887A371CC79675E4D40E23791A5F29E9863323B43D3603DB9DBA73D3F12A8B050F7AF9D9AE1CCA80130856D367422961CD1BA57BD6EE6BF6CEABCC14DC07977EDE96E6EF4038F4363A859E578FE91FD7B84EFFBB466D42C336D787C283A0E9C8FB40F02AA794CA3DC25473A2E21B
310
504B0304140006080800615B77479BEBDE04F1000000B1010000310000006662782F41413336383131412D373244382D343738352D423331392D4144374545344137303739362F636F72652E786D6C8D50CB6EC32010FC156BEFD80627C1893091ABE40F7AEA0D01715162B07854FDFC42EC4AED2DA745B333CCECB0F3F7FC
310
A8BEB40FC6D90170DD42A5AD74CAD86980146FA887EACC99772EFEA14165C5AC07283070367997960D92CE466D0B6A9DD21B2842D0112AF9C88F0182FCD4B3A8458A9911EEF522E45D4CBAC6F5CAE32C9AF9572ABD16512BE0A4C57B843122DD3BC627424F2DF9604D61729692519B9551D9DDDC8CF6C0C7B13BF4188F8892
310
4B8F76B4DFA3B70E1FD178A1D7EB6EA42D3D1E5853C49C85E8F3CDDB27E5BA57E5ABF05FE6B4A817321B1B3BB219AE8A001CE73CCF05674D29308F67BB7996B2F90F504B0304140006080800615B7747FB5A1C5354010000DD0200000C0000006662782F636F72652E786D6C8D52DB8E832014FC15C33B2AD8AD6B83346E2F
310
5FB04FFB4691BAA60A06C1F4F317BCC4F5612F314132E79C993313C8F1D936C120745F2B990314C6201092ABB296550EACB9C357101C29D14A996F6D2090AC1539F030A0A4D2CA7633C49534427A54AA52CC20EB7B6140C01B77C941CF3F45CB42668DEBE81F61C7F883552244E1D44789B575398FD6A563ABEFB5D080C6FB
310
E2744D7106CF697185BBEB1B825971C110A5A7A4C0FB7376493212F9614A4CDD2EEA5C0B664409288ED10B4408E2E41DA1034E0F31FE2091EFA4A437DA799E45BD3B40EFB72789267CC367BBF26F3E5B4B93E0996F9AE801456EBDB14049E4F371BF31BC6D864ED8E567D8AD592C3C1C34086E94DEB94AA9EC5A1A586385A3
310
8E83F123D15475CC23C14F3CF8179EDF395C504C566E3566DCF5668D57DFEED4090D07F30CA4D22D6BD6E5A615D77315DA585AC6B96A94FECFF462750933F20F937E01504B0304140006080800615B7747D34DA7F007010000B201000008000000636F72652E786D6C8D504B6EC32014BC0A628F6D701BD711267293F8045D
310
75470D71506CB0F844EDED0B3195DA5D570FCDCC7B330C3D7C2E33B84BEB94D11DC4450581D4A3114A4F1D0CFE825E2038306A8DF1BF641068BEC80E2618323A5913D60C8D467BA913AA8D9019E4CE490FC138C74707DD78950B2F78F051E16EC5CAC71B9F64818B4DC7A857CBCFEA6825F75240462AFC8C3046A47EC3784F
310
9A7D45DE6999948C86A044B65222BAAB8B9216B26AD71F8786B4E8D4F4037A1A5E316AFB3341B839D63DD99DDA73DDD2322D33EABC8D7FCE47624E0F1CBF275F5A6E14A31FC6CC5910430960F4FC154D6899883FA1C32AFE115A695F937C70DB7090E118E84144E3D4601C8F7AE34C6DB36F504B0102140014000608080061
310
5B77470000000000000000000000003700000000000000000000000000000000006662782F41413336383131412D373244382D343738352D423331392D4144374545344137303739362F617474726962757465732E62696E504B01021400140006080800615B77470000000000000000000000003500000000000000000000
310
000000550000006662782F41413336383131412D373244382D343738352D423331392D4144374545344137303739362F76657274696365732E62696E504B01021400140006080800615B7747F270F13306000000040000003600000000000000000000000000A80000006662782F41413336383131412D373244382D343738
310
352D423331392D4144374545344137303739362F747269616E676C65732E62696E504B01021400140006080800615B774788E57597CD3F0000904100004200000000000000000000000000020100006662782F41413336383131412D373244382D343738352D423331392D4144374545344137303739362F7265736F757263
310
65732F322F305F67656E657269632E706E67504B01021400140006080800615B774751464CB4890000004301000036000000000000000000000000002F4100006662782F41413336383131412D373244382D343738352D423331392D4144374545344137303739362F6469726563746F72792E786D6C504B01021400140006
310
080800615B774771359DAA3A070000211C000034000000000000000000000000000C4200006662782F41413336383131412D373244382D343738352D423331392D4144374545344137303739362F6F626A656374732E786D6C504B01021400140006080800615B774706DA5443E1000000550100003C000000000000000000
310
00000000984900006662782F41413336383131412D373244382D343738352D423331392D4144374545344137303739362F7265736F75726365732F322F636E782E786D6C504B01021400140006080800615B7747FF15A4A45D000000800000003A00000000000000000000000000D34A00006662782F41413336383131412D
310
373244382D343738352D423331392D4144374545344137303739362F7265736F75726365732F636E782E786D6C504B01021400140006080800615B7747817163FE42010000560500003000000000000000000000000000884B00006662782F41413336383131412D373244382D343738352D423331392D4144374545344137
310
303739362F636E782E786D6C504B01021400140006080800615B77472D1AD26D7E000000A30000000B00000000000000000000000000184D00006662782F636E782E786D6C504B01021400140006080800615B7747A6D797065F000000820000000700000000000000000000000000BF4D0000636E782E786D6C504B010214
310
00140006080800615B7747ECFD112DA8000000260100001300000000000000000000000000434E00005B436F6E74656E745F54797065735D2E786D6C504B01021400140006080800615B77473DEE336E64000000790000001B000000000000000000000000001C4F00006175746F6465736B2D64657369676E2D7061636B61
310
67652E786D6C504B01021400140006080800615B7747333E0CCAF40000008E0100003D00000000000000000000000000B94F00006662782F41413336383131412D373244382D343738352D423331392D4144374545344137303739362F7265736F75726365732F322F636F72652E786D6C504B01021400140006080800615B
310
774707383FEAF9000000960100003B00000000000000000000000000085100006662782F41413336383131412D373244382D343738352D423331392D4144374545344137303739362F7265736F75726365732F636F72652E786D6C504B01021400140006080800615B77479BEBDE04F1000000B10100003100000000000000
310
0000000000005A5200006662782F41413336383131412D373244382D343738352D423331392D4144374545344137303739362F636F72652E786D6C504B01021400140006080800615B7747FB5A1C5354010000DD0200000C000000000000000000000000009A5300006662782F636F72652E786D6C504B0102140014000608
310
0800615B7747D34DA7F007010000B2010000080000000000000000000000000018550000636F72652E786D6C504B050600000000120012002D060000455600000000
  0
XRECORD
  5
17
102
{ACAD_REACTORS
330
12
102
}
330
12
100
AcDbXrecord
280
     1
270
     1
271
     1
  0
XRECORD
  5
16
102
{ACAD_REACTORS
330
12
102
}
330
12
100
AcDbXrecord
280
     1
270
     1
271
     1
  0
XRECORD
  5
18
102
{ACAD_REACTORS
330
12
102
}
330
12
100
AcDbXrecord
280
     1
270
     1
271
     1
  0
XRECORD
  5
15
102
{ACAD_REACTORS
330
12
102
}
330
12
100
AcDbXrecord
280
     1
270
     1
271
     1
  0
XRECORD
  5
24
102
{ACAD_REACTORS
330
22
102
}
330
22
100
AcDbXrecord
280
     1
270
     1
271
     1
  0
XRECORD
  5
23
102
{ACAD_REACTORS
330
22
102
}
330
22
100
AcDbXrecord
280
     1
270
     1
271
     1
  0
XRECORD
  5
27
102
{ACAD_REACTORS
330
22
102
}
330
22
100
AcDbXrecord
280
     1
270
     1
271
     1
  0
XRECORD
  5
26
102
{ACAD_REACTORS
330
22
102
}
330
22
100
AcDbXrecord
280
     1
270
     1
271
     1
  0
XRECORD
  5
28
102
{ACAD_REACTORS
330
22
102
}
330
22
100
AcDbXrecord
280
     1
270
     1
271
     1
  0
XRECORD
  5
25
102
{ACAD_REACTORS
330
22
102
}
330
22
100
AcDbXrecord
280
     1
270
     1
271
     1
  0
XRECORD
  5
88E
102
{ACAD_REACTORS
330
88D
102
}
330
88D
100
AcDbXrecord
280
     1
102
DISPLAYNAME
  1
Imperial24
102
FLAGS
 90
        0
  0
CELLSTYLEMAP
  5
88C
102
{ACAD_REACTORS
330
88B
102
}
330
88B
100
AcDbCellStyleMap
 90
        3
300
CELLSTYLE
  1
TABLEFORMAT_BEGIN
 90
        5
170
     1
 91
        0
 92
    32768
 62
   257
 93
        1
300
CONTENTFORMAT
  1
CONTENTFORMAT_BEGIN
 90
        0
 91
        0
 92
      512
 93
        0
300

 40
0.0
140
1.0
 94
        5
 62
     0
340
55
144
0.25
309
CONTENTFORMAT_END
171
     0
 94
        0
309
TABLEFORMAT_END
  1
CELLSTYLE_BEGIN
 90
        1
 91
        1
300
_TITLE
309
CELLSTYLE_END
300
CELLSTYLE
  1
TABLEFORMAT_BEGIN
 90
        5
170
     1
 91
        0
 92
        0
 62
   257
 93
        1
300
CONTENTFORMAT
  1
CONTENTFORMAT_BEGIN
 90
        0
 91
        0
 92
      512
 93
        0
300

 40
0.0
140
1.0
 94
        5
 62
     0
340
55
144
0.18
309
CONTENTFORMAT_END
171
     0
 94
        0
309
TABLEFORMAT_END
  1
CELLSTYLE_BEGIN
 90
        2
 91
        1
300
_HEADER
309
CELLSTYLE_END
300
CELLSTYLE
  1
TABLEFORMAT_BEGIN
 90
        5
170
     1
 91
        0
 92
        0
 62
   257
 93
        1
300
CONTENTFORMAT
  1
CONTENTFORMAT_BEGIN
 90
        0
 91
        0
 92
      512
 93
        0
300

 40
0.0
140
1.0
 94
        2
 62
     0
340
55
144
0.18
309
CONTENTFORMAT_END
171
     0
 94
        0
309
TABLEFORMAT_END
  1
CELLSTYLE_BEGIN
 90
        3
 91
        2
300
_DATA
309
CELLSTYLE_END
  0
ENDSEC
  0
EOF
